查看: 896|回覆: 8
收起左側

[華語TV] 张学友 - 李香兰《国产凌凌漆》插曲高清剪辑(国粤双音轨)[MP4/1080P/124M]

[複製連結]

發表於 2016-12-16 23:34:00 | 顯示全部樓層 |閱讀模式

馬上註冊,結交更多好友,享用更多功能,讓你輕鬆玩轉社區。

您需要 登錄 才可以下載或查看,沒有帳號?註冊

x
0.jpg 5 |" m7 D) P4 ?8 y
6 E. J1 Z5 J& N
国产凌凌漆 这个片段里的星爷真是完美演绎了风流倜傥的典范啊,而今青春风采桀骜不再,再次重温,却多了几分感慨和缅怀...+ x9 Q; V- N& {' k1 B

% s2 K' L- e6 h- [4 ~) x# h5 Y& N   General
3 U! B/ [! l& D, Q( g. i/ s' \      Complete name : 张学友 - 李香兰《国产凌凌漆》插曲高清剪辑(国粤双音轨).mp4
8 u. u4 q  h* N' \" Q* ~      Format : MPEG-44 Y! L& J; m- Y' ^9 R0 a' K  E7 N
      Format profile : Base Media4 }6 D/ h* N! i: o8 }' v; M
      Codec ID : isom1 L8 I  A4 D: W' e! O" u4 z
      File size : 121 MiB) o  L/ l1 c; c; I
      Duration : 1mn 55s# \1 Q0 {4 e) n8 p- f
      Overall bit rate : 8 778 Kbps
7 f/ @& a) E& \2 t5 l& d& V" ~      Encoded date : UTC 1970-01-01 00:00:00
3 R* P: F' s( U. U      Tagged date : UTC 1970-01-01 00:00:00
/ O! c% R2 ?! J3 y# B8 o# Y   Video #1
7 \. B! G4 O+ [      ID : 1& Y- J: I' i* z* e
      Format : AVC
# f3 U& Z8 |! J      Format/Info : Advanced Video Codec
7 H- X1 U6 v6 o3 r5 \! u. V* k      Format profile : High@L5
1 x8 [1 m5 g6 F9 z+ z  c' U      Format settings, CABAC : Yes8 {* N# m8 o# U! S$ ?) p$ f
      Format settings, ReFrames : 8 frames
! Z7 T, L& {' R& |* K      Codec ID : avc1* n  B" v) J* c, e' C6 N( r7 C2 t  x. x
      Codec ID/Info : Advanced Video Coding
1 a; b. I) a, @9 C8 g      Duration : 1mn 55s! U/ E) q5 h2 _% v# I
      Bit rate : 8 002 Kbps7 l6 K( I0 l0 U9 z0 O
      Width : 1 920 pixels! u& @2 z  H! t5 _
      Height : 1 080 pixels
4 W+ T, `- Y6 y6 _: u      Display aspect ratio : 16:92 T. d6 B1 K7 O9 z3 T+ r! ]: Z9 S
      Frame rate mode : Constant( y4 c* E: j8 W; a- O# B: X, n1 z
      Frame rate : 30.000 fps
* r" F/ M9 N8 b/ J/ B3 U* P      Color space : YUV# Q- b- @; [, F: e: V" [
      Chroma subsampling : 4:2:0* @% ?( C: z1 ?# Z* \4 a# y
      Bit depth : 8 bits" [" w, Z! D2 M+ f7 q8 L
      Scan type : Progressive
: m% K; Z% {& V4 a8 N' `# `( v; B/ O! H      Bits/(Pixel*Frame) : 0.129% K  y& @$ X2 ^: w" `% W/ H8 i1 l9 r5 M4 P
      Stream size : 110 MiB (91%)8 x7 B( [& G5 H* n# h$ l0 q
      Language : English) G7 X1 ?0 q2 q- q' F
      Encoded date : UTC 1970-01-01 00:00:00: Z4 B7 y( h7 G/ a
      Tagged date : UTC 1970-01-01 00:00:00
7 e( N, e, P1 @% W: k) n: k3 P   Audio #2
! W  ?1 w( R+ L: s  q8 ^5 x      ID : 2
  F0 a4 i1 G# `8 ]- {: }      Format : AC-3! m9 H# z' n/ k, c' x6 N0 ~
      Format/Info : Audio Coding 3
# e1 ~3 Q* h! Y: g' ]9 S      Mode extension : CM (complete main)
+ R# w5 U3 ]& o8 U      Format settings, Endianness : Big
" T" ~* V6 t. k0 X6 l5 @2 u& T' q      Codec ID : ac-3
. o( l  {. M) t8 _2 A2 h0 `      Duration : 1mn 55s* h+ @' l. G; x9 W( r3 g; C
      Source duration : 1mn 55s
, w; C. g( A# z% a4 D: r      Bit rate mode : Constant
$ c" r7 i/ e. k/ R" a  g0 t! M7 ~+ q0 b      Bit rate : 384 Kbps
6 `) l0 s: g! d0 t; l" g( {# A9 y  c      Channel(s) : 6 channels
$ Z3 y: p' w( b2 b3 D      Channel positions : Front: L C R, Side: L R, LFE
- {" a+ ]/ i% l0 T- d% b7 y& c      Sampling rate : 48.0 KHz
& s+ ?6 `. q3 |+ f# }6 k; b# {      Bit depth : 16 bits8 n. A" `5 O9 B( m7 T
      Compression mode : Lossy- F+ w+ R/ T5 N  J
      Stream size : 5.30 MiB (4%)
- Y3 x* U% R) G4 A& I) w      Source stream size : 5.30 MiB (4%)) h/ C% @  ]* J/ ]
      Language : English
) R; V1 {- X$ H9 U4 M6 D" O      Encoded date : UTC 1970-01-01 00:00:00
# Z0 o* T  Z- D3 T' [# ^0 x      Tagged date : UTC 1970-01-01 00:00:00; W; W" E! R7 F6 }& b; r1 u
      mdhd_Duration : 115741& T' y, h2 }+ a& M3 \  a, j. X
   Audio #3
" V' c. k; y1 p! S      ID : 39 z1 z$ _4 r4 \) Z2 l; w7 z  D. s
      Format : AC-3+ F+ ^( _5 @( d2 ^# Y+ \* k
      Format/Info : Audio Coding 3( l9 V6 L" b+ O# c! G5 R
      Mode extension : CM (complete main)
" J" H" i/ ^2 k' ?: x0 {      Format settings, Endianness : Big
: J- k2 E3 v& p      Codec ID : ac-3) \! _# C# h. e5 C8 r. Q
      Duration : 1mn 55s
. d! j, {% j# U9 T; c      Source duration : 1mn 55s
, n- Y3 n9 y" r* H      Bit rate mode : Constant: `  w/ |$ X% b5 n5 }1 k* l
      Bit rate : 384 Kbps
( y5 X( Z# o0 R0 e% P: k! e% O      Channel(s) : 6 channels7 U' a3 v9 ^# h3 a
      Channel positions : Front: L C R, Side: L R, LFE
- f0 N9 s" t) s! s6 T  u$ |3 e5 ?: _) b      Sampling rate : 48.0 KHz
; j. A' _/ A* {# N      Bit depth : 16 bits. c& y) c+ C7 [
      Compression mode : Lossy4 x& t5 v$ w+ _) ]/ O
      Stream size : 5.30 MiB (4%)% |* e7 w- w( l1 V8 `9 ^4 v
      Source stream size : 5.30 MiB (4%)
' D5 s7 T6 Q: A# d- u% u7 h% E! j8 s      Language : English' x& ^6 v  A2 W; d
      Encoded date : UTC 1970-01-01 00:00:00" y, O% D0 G) _% u7 Y' o
      Tagged date : UTC 1970-01-01 00:00:00
0 k3 |- S8 F- k' N/ L3 y7 r' p      mdhd_Duration : 115741
2 w  U5 M3 v5 K* F$ d+ j
& c( T/ [6 j; k. T$ j& q( h 1.JPG 3 d2 f; H4 z' ~6 X+ ~! C( ]! u
2.JPG
9 w* f$ s1 Q. n& f 3.JPG " p% u) C/ O  J/ O' a& x
4.JPG . d1 S, h2 k5 d( X9 V# d: K# z
5.JPG 9 h( V* o4 J6 p; Q; |/ B
$ q* J. s- }( b8 {
链接:http://pan.baidu.com/s/1mhYyLGO
& i" q0 n2 ~/ r; E6 C+ b  y' A密码:lz1k

發表於 2016-12-17 00:23:06 | 顯示全部樓層
蠻喜歡這首歌的5 ^, B+ z% d3 Q' ?7 g# {) Y* Z% a
周爺電影中都會有首歌
- ^* d" N& ?! `5 t0 o這首是其中我蠻喜歡的......又讓我想起大話西遊的"一生所愛"3 f5 \. B/ ], ?$ I7 D5 l' y
來去再聽歌  N, q" ~( c4 b
感謝分享2 F3 B3 T1 ~" W8 p! I/ i$ g
回覆 支持 反對

使用道具 檢舉


發表於 2016-12-20 22:32:45 | 顯示全部樓層
很喜歡的電影 也是很喜歡的歌 感謝版大辛苦分享
回覆 支持 反對

使用道具 檢舉


發表於 2016-12-27 22:53:26 | 顯示全部樓層
楼主厉害 这个居然都有剪辑!
回覆 支持 反對

使用道具 檢舉


發表於 2016-12-28 13:43:41 | 顯示全部樓層
谢谢分享
回覆 支持 反對

使用道具 檢舉


發表於 2017-1-2 09:13:33 | 顯示全部樓層
哇 这个绝对经典呀& e4 y$ t( t6 ]* j
我来看看 !!
回覆 支持 反對

使用道具 檢舉


發表於 2017-1-30 22:06:15 | 顯示全部樓層
经典啊~张学友的歌一直很好听) M* H3 m1 P) Q
来看看 !!
8 g* B; h% ]+ @% n' Q谢谢
回覆 支持 反對

使用道具 檢舉


發表於 2017-3-18 07:07:52 | 顯示全部樓層
秋意濃的粵語版 好聽的歌永不會被遺忘
回覆 支持 反對

使用道具 檢舉


發表於 2018-4-16 03:31:00 | 顯示全部樓層
6 M$ H+ i; q& t4 s* j+ e7 K
很喜歡的電影 也是很喜歡的歌 感謝版大辛苦分享
回覆 支持 反對

使用道具 檢舉

您需要登錄後才可以回文 登錄 | 註冊

再次提醒,當您點擊發表回覆,視同您已經明白本討論區的版規,如不明白請先參見各版版規。

熱門推薦

帶動4K經濟就是要靠這一味,韓國4K UHD頻道強力放送(下載-少女時代L.A演出現場)
帶動4K經濟就是要靠這一味
目前韓國已經擁有5個UHD超高清頻道,分別是:UMAX, CJ E&M
求助如何設定HDfury Integral-2解HDCP
求助如何設定HDfury Integ
求助如何設定HDfury Integral-2解HDCP 請問一下要如何設定才能讓
大陆南京网友的小小家庭影院
大陆南京网友的小小家庭影
我是客厅党房价太贵没有办法搞视听室,这就个奢侈的梦。 工作比
HDfury Integral 讓你的4K電視也能支持HDCP 2.2!
HDfury Integral 讓你的4K
過去的幾年裡出售的許多4K UHD電視機不兼容HDCP 2.2,這意味著某
SHARP 4T-C45AH1T 是新機嗎?
SHARP 4T-C45AH1T 是新機
為了打Xbox One X碧血狂殺 2 覺得必須為了它入一台4K電視 畢竟搞

聯絡我們| 問題反映| 小黑屋| 手機版| Archiver|  本網站特別聘請 蔡家豪律師 為本站法律顧問

快速回覆 返回頂部 返回列表