查看: 6439|回覆: 45
收起左側

[歐美MV] [MU]Lady Gaga - Judas MPEG2 AC3 ch 5.1 1080i

  [複製連結]

發表於 2011-5-29 11:04:32 | 顯示全部樓層 |閱讀模式

馬上註冊,結交更多好友,享用更多功能,讓你輕鬆玩轉社區。

您需要 登錄 才可以下載或查看,沒有帳號?註冊

x
Lady Gaga - Judas.ts_thumbs_[2011.05.29_11.03.38].jpg
# S. }4 l' X! b0 p( m0 @5 d7 `. ^: {# W* ^$ Y* A/ ^# p
General ; s# O* R$ n& g3 |* Y$ Z2 B
ID : 1 ( V8 c7 f& U3 a0 I
Complete name : G:\HDMV\歐美\Lady Gaga - Judas.ts / ?  A" A7 z  u  X1 g
Format : MPEG-TS / b0 ^1 Y+ b5 U1 q  ?
File size : 534 MiB
: V' E! M2 w8 o( `1 _: YDuration : 5mn 23s ; x  k: G2 }9 L" _) \5 u* ^
Overall bit rate : 13.8 Mbps3 [$ i% p" t3 |- q

9 P# O, O6 f' `# `Video % I  a! ^' \) w$ D
ID : 543 (0x21F) % Q  E+ j7 D5 [1 P8 G" X' ]+ {9 ?
Menu ID : 1 (0x1)
" U$ U, u! \. c) QFormat : MPEG Video
9 K6 m& M& b+ G( l; E7 RFormat version : Version 2
4 v. d* I4 V% }: ~3 I6 U  g; \Format profile :
Main@High
( U5 c9 v/ l/ F4 fFormat settings, BVOP : Yes
- W5 {; Q' e+ b1 f: UFormat settings, Matrix : Default % {) z1 t& h6 c( @+ ]7 t
Duration : 5mn 23s
- \9 Z5 i: V0 C5 Z8 c! GBit rate mode : Variable
" N. S" E7 S4 `- DBit rate : 12.8 Mbps
2 w. t/ ?/ R+ m# d+ H! r+ e; w# {5 ]8 `: XNominal bit rate : 18.0 Mbps 3 P9 |7 U$ @, P. O; K: o
Width : 1 920 pixels / W2 w1 {. I9 z, l+ b
Height : 1 080 pixels / O9 w1 Y2 [. S, a3 d4 ^, X# \
Display aspect ratio : 16:9
8 q5 M1 g! U+ U: r; h1 xFrame rate : 29.970 fps ( C8 C% v3 }3 W' j6 r& x
Standard : Component , r9 f7 Z8 E9 n4 f; C/ b/ K
Color space : YUV
+ H& \, I( u$ v7 `: q! O2 xChroma subsampling : 4:2:0
! r  \" O9 M6 Y5 L1 J5 tBit depth : 8 bits
) y# ^$ q  P4 S0 d, X' l- f7 `Scan type : Interlaced
& u; }) G  C, w! o7 L+ n) ^. GScan order : Top Field First
- C& o4 L' T' X( @- PBits/(Pixel*Frame) : 0.205 - U. o8 g) Y. Y) B* f
Stream size : 492 MiB (92%)
) {9 z9 ~( e7 t) [! w' |  K" \$ w% I" W2 A/ C
Audio
- B7 T, _- \9 o. {ID : 542 (0x21E) & M) f# |( p" r8 E1 R
Menu ID : 1 (0x1)
6 N" h' x" k! X. uFormat : AC-3 % Y" }6 @9 X4 t" Z5 ~% G3 h3 L
Format/Info : Audio Coding 3
  j6 c* y, M8 I2 i- P' V) [, XMode extension : CM (complete main)
- X) `8 O1 I/ R  ~/ G9 fDuration : 5mn 23s
! x6 [" ~# a1 u$ V0 c& H7 ~Bit rate mode : Constant
9 M2 }' k4 t5 Y3 \Bit rate : 384 Kbps
/ d  F9 H8 k4 @/ E; z- f5 K; _Channel(s) : 6 channels + W. l$ [6 Y7 s! j; |
Channel positions : Front: L C R, Side: L R, LFE & }1 B6 B5 e. {: f4 r
Sampling rate : 48.0 KHz
+ E" N4 _# \% W$ Y0 ABit depth : 16 bits
9 I% r& L% k4 t4 E& }) _Stream size : 14.8 MiB (3%)
2 u) r9 M% h8 G9 I3 u* e4 ZLanguage : English
4 e% r' g& F' D& U# w* T# Q0 JText 0 s* X5 Y0 X1 z* `
ID : 543 (0x21F)608-1
8 V& f' ^8 p0 pMenu ID : 1 (0x1) 3 ?- \& \( H9 m) W$ T! h& w
Format : EIA-608
' F+ Z& @; b% u; E2 [Muxing mode : MPEG Video / EIA-708
! G- a; x  u" ]5 \Muxing mode, more info : Muxed in Video #1
* W6 p1 ]3 ?. ^  SDuration : 5mn 23s
- |' O; P8 i1 Z" x% b% eStream size : 0.00 Byte (0%)
6 X# P3 }( X/ |+ S' p1 `& Y7 |+ V) J4 \9 l9 Y& B2 g( i4 o
Lady Gaga - Judas.rar (147 Bytes, 下載次數: 162)

評分

參與人數 1名聲 +3 精幣 +3 收起 理由
30228 + 3 + 3 精品文章

查看全部評分


發表於 2011-5-29 11:34:19 | 顯示全部樓層
有五點一聲道 非常感謝3 B: L7 }" ^# B1 M6 Y
來趕快感受一下吧!
回覆 支持 反對

使用道具 檢舉


發表於 2011-5-29 11:55:24 | 顯示全部樓層
Lady Gaga 的歌,趕快來看看這次又有何令人意想不到的演出。
回覆 支持 反對

使用道具 檢舉


發表於 2011-5-29 21:41:31 | 顯示全部樓層
卡卡女神的MV當然不能錯過+ m2 w$ G1 z5 C  d* f
看看這次她是如何搞怪3 f+ f: Q6 W$ ~; P- v& }3 |1 P
感謝分享
. R7 j+ i1 [8 v% F9 j0 \英文MV好像較少人製做中文字幕" G7 |8 L5 S1 p; m! U+ Z4 C" J1 r) f
可惜了
回覆 支持 反對

使用道具 檢舉


發表於 2011-5-29 21:57:04 | 顯示全部樓層
好棒喔連女神的MV都要超級高畫質/ f. B* W1 R2 c, m- N; R/ n; E
真是太感動了QQ. p+ `; ~* F1 E0 r. n$ p, l( n8 x
上傳辛苦了謝謝大大!!
回覆 支持 反對

使用道具 檢舉


發表於 2011-5-30 00:47:38 | 顯示全部樓層
現在連歐美的mv也要和韓國mv一樣拍高畫質~
- A0 A" z. W7 V8 S這樣就造福了歌迷囉~
回覆 支持 反對

使用道具 檢舉


發表於 2011-5-30 22:31:53 | 顯示全部樓層
感謝分享  女神卡卡  這次某動作     很像經典 MV 採紅笭 的動作     
. N" i' t3 a* W1 J; `% p
7 K8 z; @3 e3 {3 i$ J, Z且沒上次 歌曲的恐怖
回覆 支持 反對

使用道具 檢舉


發表於 2011-6-1 10:59:48 | 顯示全部樓層
哈~~~- G+ s0 h4 h* ?9 u! Q

! r' x4 d3 e2 A4 y; Y原來是採紅苓的那一首' E$ O' v& [1 ], ]9 _- N3 ^9 k4 Z

0 I# Z& F9 \: l0 e0 x: H5 A9 N動作超有趣的
回覆 支持 反對

使用道具 檢舉


發表於 2011-6-2 23:16:52 | 顯示全部樓層
Like Lady Gaga a lot, she's quite unique, Thanks!
回覆 支持 反對

使用道具 檢舉


發表於 2011-6-6 21:14:23 | 顯示全部樓層
她的MV真的沒話說~~~: j. m/ l" \2 T% \

* W8 ?3 s( y! u一次比一次更有看頭!!, w$ D$ q% n# V5 j; P; p" b, M
8 S  N4 W' G$ T* Y1 _% v
謝謝大大的分享
回覆 支持 反對

使用道具 檢舉


發表於 2011-6-19 08:18:52 | 顯示全部樓層
GAGA的歌必收!多谢楼主!
回覆 支持 反對

使用道具 檢舉


發表於 2011-6-19 09:52:23 | 顯示全部樓層
本文章最後由 e134679 於 2011-6-19 09:58 編輯
, Y- C" s8 h; v7 |7 ]
+ ^6 \$ Y$ P6 X4 X) Q3 G卡卡的造型一向很勁爆...(雖然不是很欣賞XD)
0 v9 ^. A. `1 ~9 U; e# e' P: W但她的歌只能說相當能帶動很多人
9 W: t; ~7 D& k/ l+ t身受大家喜歡
回覆 支持 反對

使用道具 檢舉


發表於 2011-6-19 10:14:07 | 顯示全部樓層
這一首我很喜歡,比起 born this way 更有GAGA的味道' {# r+ w% a4 o
& j& q4 M; i+ z, w% V5 o
之前收藏的版本不含5.1聲道,來改朝換代一下
回覆 支持 反對

使用道具 檢舉


發表於 2011-6-22 12:44:34 | 顯示全部樓層
哇哈哈!!!
: k" K5 I" R" y開心開心~~7 R: G) v4 |$ e: u! E& P8 t, g
Judas-Juda-a-a
, ^# \4 ]" Z9 f: H# z  TJudas-Juda-a-a" B/ n) t- F. C0 @6 t! V1 L2 ^% i
這段好洗腦哦!!!!!
4 R( `% ^7 t( |) K: s這歌真的很好聽~~. U$ ~0 s6 j- o6 X! Y& [9 J
新歌 Hair 也超好聽!!!!
回覆 支持 反對

使用道具 檢舉


發表於 2011-6-29 18:02:18 | 顯示全部樓層
這首歌真的很好聽,但雖然覺得MV可以再更好一點
6 [5 u' `4 t; M. D1 p. q不過還是要來下載一下,因為還是很愛她!
回覆 支持 反對

使用道具 檢舉


發表於 2011-6-29 20:27:46 | 顯示全部樓層
很喜歡這首歌~雖然她的歌詞真的是很敏感~不過好聽是重點
回覆 支持 反對

使用道具 檢舉


發表於 2011-7-4 19:06:02 | 顯示全部樓層
昨天看完 GAGA 的歌友會, JUDAS 真的讓我落淚了 qqqqqqqqqqqqqqqqqq
回覆 支持 反對

使用道具 檢舉


發表於 2011-7-4 19:57:52 | 顯示全部樓層
很特別的歌手,來看一下!
回覆 支持 反對

使用道具 檢舉


發表於 2011-7-6 17:42:46 | 顯示全部樓層
GAGA媽咪的歌曲當然要下載來看看囉
* ]* B" O, i1 S. R6 E7 S謝謝 ^^
回覆 支持 反對

使用道具 檢舉


發表於 2011-7-25 17:03:49 | 顯示全部樓層
Lady Gaga真是太酷了
% @& \9 `0 d* S2 M2 n越來越搞怪啦
回覆 支持 反對

使用道具 檢舉

您需要登錄後才可以回文 登錄 | 註冊

再次提醒,當您點擊發表回覆,視同您已經明白本討論區的版規,如不明白請先參見各版版規。

熱門推薦

南台灣家庭劇院體驗講座(X970R LX500)
南台灣家庭劇院體驗講座(X
小弟的家庭劇院落成已經3年,這些日子來,器材的變動與劇院的心
小空間的進擊 新增DOLBY ATMOS
小空間的進擊 新增DOLBY A
本文章最後由 FRANKLIN0815 於 2015-3-22 18:11 編輯 趁著今
復活島石像的怒吼【家訪南崁小呆】
復活島石像的怒吼【家訪南
今天拜訪的主角大家都叫他小呆~ 他有著18歲的外表(事實上已經老
我的雅瑟升級秦朝3112安裝後心得
我的雅瑟升級秦朝3112安裝
從大學時期開始就喜歡看電影,長大後期望能有一套屬於自已的家庭
請問 有大大聽過 Creative Sound BlasterX Katana 全頻電競音箱
請問 有大大聽過 Creative
小弟 對這一組 還滿感 興趣的 可是 網路上 很少人在 討論 想問

聯絡我們| 問題反映| 小黑屋| 手機版| Archiver|  本網站特別聘請 蔡家豪律師 為本站法律顧問

快速回覆 返回頂部 返回列表