查看: 6549|回覆: 45
收起左側

[歐美MV] [MU]Lady Gaga - Judas MPEG2 AC3 ch 5.1 1080i

  [複製連結]

發表於 2011-5-29 11:04:32 | 顯示全部樓層 |閱讀模式

馬上註冊,結交更多好友,享用更多功能,讓你輕鬆玩轉社區。

您需要 登錄 才可以下載或查看,沒有帳號?註冊

x
Lady Gaga - Judas.ts_thumbs_[2011.05.29_11.03.38].jpg
2 d2 G; v: M( ~9 V& G$ j- t) K$ y6 v8 n$ t
General ' a2 f2 o2 y4 U% t7 h
ID : 1
& C( A4 X- @" L, Z; KComplete name : G:\HDMV\歐美\Lady Gaga - Judas.ts ! I/ h4 D. O, j; R! y" ^: e
Format : MPEG-TS
) u1 E3 M$ [. s4 W$ v/ bFile size : 534 MiB & L" r5 Q2 U8 @2 U
Duration : 5mn 23s 6 P4 K7 g# ^! p$ T' t
Overall bit rate : 13.8 Mbps; g$ D6 [$ H/ a) z4 _, D. o
  m' u, a5 N, S8 S, {% O9 a# b
Video + j7 ~/ P1 q: K( n& S# A
ID : 543 (0x21F)
5 H; S6 _; v* {0 g3 [- {Menu ID : 1 (0x1)
# q* D# Z3 P; j# ^Format : MPEG Video 1 Y3 z8 V1 V+ k# @. K
Format version : Version 2 , V$ C8 n' \& ~
Format profile :
Main@High
, y* S0 F6 d( w& T5 [3 f- h! R" @Format settings, BVOP : Yes * I& A' ?- B' D' V' n
Format settings, Matrix : Default
; h! R' J& U; ]6 \" FDuration : 5mn 23s   n( D$ M7 w, f) h- `$ D4 G7 {  S
Bit rate mode : Variable   H" m8 d4 X# P, c( U
Bit rate : 12.8 Mbps 5 H) D/ G4 q/ Z1 u+ i5 L( j7 p
Nominal bit rate : 18.0 Mbps
- `3 j+ j$ U. D2 y* UWidth : 1 920 pixels
9 K# ^9 [! U* L8 SHeight : 1 080 pixels
$ Y7 z  j0 }. f2 ?Display aspect ratio : 16:9
. A* G$ e$ f. P% q  WFrame rate : 29.970 fps 0 z% y. ^, s$ h+ n
Standard : Component
" Z: r* m, l! u! R7 AColor space : YUV
0 P5 S; J/ [  M/ b) e6 @Chroma subsampling : 4:2:0
  f- ^( R& G- F3 EBit depth : 8 bits
, ~: m8 x; D) Z+ AScan type : Interlaced
( T: W# ~9 ~; o+ C+ Q! ]Scan order : Top Field First
. C/ S, _  o$ q) |7 lBits/(Pixel*Frame) : 0.205   ^- e5 u0 E- a! ]. ]+ ?8 H$ ?7 l
Stream size : 492 MiB (92%) 7 `$ T8 Q4 ^7 C' T& Y
7 O; W1 _' ~9 z
Audio
) l0 S+ n' c* P# M  k0 QID : 542 (0x21E) % o7 f. r; S' r5 S2 g4 X) C. b
Menu ID : 1 (0x1)
  H! _7 C4 R! d4 ^2 uFormat : AC-3   N5 F# z2 Y8 O2 J
Format/Info : Audio Coding 3
: \. D2 R  U  EMode extension : CM (complete main)
& B5 h3 _5 g3 y& WDuration : 5mn 23s " `: P0 @& m& z
Bit rate mode : Constant
' a  F+ a: [+ W4 l5 S4 IBit rate : 384 Kbps % ^+ Y$ i& R# U; C# H; A& A
Channel(s) : 6 channels " Y' t0 }7 }' t0 H) D
Channel positions : Front: L C R, Side: L R, LFE
: W5 E8 ^( s- k. MSampling rate : 48.0 KHz . I  G& B9 i# ~: m; R; A
Bit depth : 16 bits   k+ z& t7 |" O, k* ^
Stream size : 14.8 MiB (3%) 2 }1 B% @- J, e  [# k3 Q: f2 I8 r
Language : English ; P1 {/ b8 x9 w
Text
$ q* ?  C) g9 @' p1 bID : 543 (0x21F)608-1
& W" j5 e9 C. Z; b/ nMenu ID : 1 (0x1) 0 k+ s$ Y* u% }/ z7 B9 k/ Y$ [
Format : EIA-608
% e9 w: o& {" a* b, ~  [Muxing mode : MPEG Video / EIA-708
9 u" p4 Q, @3 o" xMuxing mode, more info : Muxed in Video #1 7 S, j6 o2 k+ ^% y5 f  o$ @/ b
Duration : 5mn 23s 2 a' G. e, N9 w6 Y9 L% L0 {
Stream size : 0.00 Byte (0%)
* U- D7 i" l0 B3 N; I7 V1 q- o) e8 e: h! b! o" [5 k& ~: _3 v
Lady Gaga - Judas.rar (147 Bytes, 下載次數: 162)

評分

參與人數 1名聲 +3 精幣 +3 收起 理由
30228 + 3 + 3 精品文章

查看全部評分


發表於 2011-5-29 11:34:19 | 顯示全部樓層
有五點一聲道 非常感謝
% |8 l; {( l% D! r0 V來趕快感受一下吧!
回覆 支持 反對

使用道具 檢舉


發表於 2011-5-29 11:55:24 | 顯示全部樓層
Lady Gaga 的歌,趕快來看看這次又有何令人意想不到的演出。
回覆 支持 反對

使用道具 檢舉


發表於 2011-5-29 21:41:31 | 顯示全部樓層
卡卡女神的MV當然不能錯過6 N+ B7 v+ `$ R: i8 c* G) k2 r3 ]0 T
看看這次她是如何搞怪; S. O4 L7 D0 t; v) r( @; i7 q3 D( X
感謝分享% E5 e0 v" \) l
英文MV好像較少人製做中文字幕- Y- ?5 y# _3 J& W# L9 U+ O+ t3 z
可惜了
回覆 支持 反對

使用道具 檢舉


發表於 2011-5-29 21:57:04 | 顯示全部樓層
好棒喔連女神的MV都要超級高畫質
% \; V/ c+ Q  I1 c8 p& @真是太感動了QQ
8 K) E" Z  o' ?- d+ E- C上傳辛苦了謝謝大大!!
回覆 支持 反對

使用道具 檢舉


發表於 2011-5-30 00:47:38 | 顯示全部樓層
現在連歐美的mv也要和韓國mv一樣拍高畫質~1 }9 m' V5 l9 J/ u
這樣就造福了歌迷囉~
回覆 支持 反對

使用道具 檢舉


發表於 2011-5-30 22:31:53 | 顯示全部樓層
感謝分享  女神卡卡  這次某動作     很像經典 MV 採紅笭 的動作     
) I! q& n/ `' H2 V$ ?- y! x  ^7 u7 a9 O! {
且沒上次 歌曲的恐怖
回覆 支持 反對

使用道具 檢舉


發表於 2011-6-1 10:59:48 | 顯示全部樓層
哈~~~/ Y" d4 D* ^% g  w  `) C) z

. a# I& G! m* e4 K. x' q; K原來是採紅苓的那一首0 T9 G$ o) n. N' T5 Q6 ~
' \5 i7 @7 R5 o. c( A  l) m( F
動作超有趣的
回覆 支持 反對

使用道具 檢舉


發表於 2011-6-2 23:16:52 | 顯示全部樓層
Like Lady Gaga a lot, she's quite unique, Thanks!
回覆 支持 反對

使用道具 檢舉


發表於 2011-6-6 21:14:23 | 顯示全部樓層
她的MV真的沒話說~~~( o' f" u9 H9 V/ t# W% n
0 z0 a$ i  r  x4 {3 z  ^
一次比一次更有看頭!!" C& o4 U( u0 W$ W* \9 }
: ~; n) @$ ^3 V2 X
謝謝大大的分享
回覆 支持 反對

使用道具 檢舉


發表於 2011-6-19 08:18:52 | 顯示全部樓層
GAGA的歌必收!多谢楼主!
回覆 支持 反對

使用道具 檢舉


發表於 2011-6-19 09:52:23 | 顯示全部樓層
本文章最後由 e134679 於 2011-6-19 09:58 編輯
- Q- r6 F- |3 I) M4 E
! _% T% Z+ M+ O, Y" v' s: [  X卡卡的造型一向很勁爆...(雖然不是很欣賞XD)
0 @  R7 {& x, P4 A但她的歌只能說相當能帶動很多人
" }9 c3 U- O, ?( E身受大家喜歡
回覆 支持 反對

使用道具 檢舉


發表於 2011-6-19 10:14:07 | 顯示全部樓層
這一首我很喜歡,比起 born this way 更有GAGA的味道
; {( q4 ?/ g" i/ {9 ?# t  u  e
0 y9 q( o2 j8 T& i4 J0 c! r5 v( p之前收藏的版本不含5.1聲道,來改朝換代一下
回覆 支持 反對

使用道具 檢舉


發表於 2011-6-22 12:44:34 | 顯示全部樓層
哇哈哈!!!
6 C# _8 U" `) |; C- [開心開心~~5 L  Z. P; Z' {5 k, @
Judas-Juda-a-a7 h: x& Z: K0 F
Judas-Juda-a-a
# y- @7 z8 g0 j, o這段好洗腦哦!!!!!% I8 S- n3 T7 \5 g
這歌真的很好聽~~
7 }: K: h; \  }) ^  f( H新歌 Hair 也超好聽!!!!
回覆 支持 反對

使用道具 檢舉


發表於 2011-6-29 18:02:18 | 顯示全部樓層
這首歌真的很好聽,但雖然覺得MV可以再更好一點
8 x* K+ B& r1 O  ]& @不過還是要來下載一下,因為還是很愛她!
回覆 支持 反對

使用道具 檢舉


發表於 2011-6-29 20:27:46 | 顯示全部樓層
很喜歡這首歌~雖然她的歌詞真的是很敏感~不過好聽是重點
回覆 支持 反對

使用道具 檢舉


發表於 2011-7-4 19:06:02 | 顯示全部樓層
昨天看完 GAGA 的歌友會, JUDAS 真的讓我落淚了 qqqqqqqqqqqqqqqqqq
回覆 支持 反對

使用道具 檢舉


發表於 2011-7-4 19:57:52 | 顯示全部樓層
很特別的歌手,來看一下!
回覆 支持 反對

使用道具 檢舉


發表於 2011-7-6 17:42:46 | 顯示全部樓層
GAGA媽咪的歌曲當然要下載來看看囉 7 o. n# N5 J( b0 X4 E  S
謝謝 ^^
回覆 支持 反對

使用道具 檢舉


發表於 2011-7-25 17:03:49 | 顯示全部樓層
Lady Gaga真是太酷了
- K8 v3 L: k6 I! S. ~. J" C; C越來越搞怪啦
回覆 支持 反對

使用道具 檢舉

您需要登錄後才可以回文 登錄 | 註冊

再次提醒,當您點擊發表回覆,視同您已經明白本討論區的版規,如不明白請先參見各版版規。

熱門推薦

JL AUDIO F113低音炮問題...
JL AUDIO F113低音炮問題.
請教一下各位.我的F113不知道為什麼會變成這樣.請問能怎麼救?
2019 Sony BRAVIA MASTER系列大展旗艦視野
2019 Sony BRAVIA MASTER
2019 Sony BRAVIA MASTER系列大展旗艦視野 8K HDR液晶電視Z9G
我的雅瑟升級秦朝3112安裝後心得
我的雅瑟升級秦朝3112安裝
從大學時期開始就喜歡看電影,長大後期望能有一套屬於自已的家庭
2019 Sony BRAVIA MASTER系列大展旗艦視野 8K HDR液晶電視Z9G 究極視聽表現感動進化OLED 電視A9G系列
2019 Sony BRAVIA MASTER
2019 Sony BRAVIA MASTER 系列Z9G 8K HDR 液晶電視 (KD-85Z9G)及
HD.Club 精研新氣象(精研總部裝修全紀錄,圖爆多)
HD.Club 精研新氣象(精研
HD.Club 精研新氣象 這個 logo前幾年就設計好的,不過都沒空處理

聯絡我們| 問題反映| 小黑屋| 手機版| Archiver|  本網站特別聘請 蔡家豪律師 為本站法律顧問

快速回覆 返回頂部 返回列表