查看: 8752|回覆: 115
收起左側

[其他] [MF] Rainbow - To Me Live 4in1 2560x1440i.ts [1.54GB]

  [複製連結]

發表於 2011-5-5 22:11:06 | 顯示全部樓層 |閱讀模式

馬上註冊,結交更多好友,享用更多功能,讓你輕鬆玩轉社區。

您需要 登錄 才可以下載或查看,沒有帳號?註冊

x
本文章最後由 wei781212 於 2011-7-1 17:17 編輯 ' {, }$ \+ @# e# Q1 |. Q
/ d6 K) i- g6 i2 }
[MF] Rainbow - To Me Live 4in1 2560x1440i.ts [1.54GB]  N6 e$ J9 ^6 S" Z
$ J7 A1 p9 U; c
其他 4 in 1 系列連結 : . e6 l; V" i/ \
" B" W! }/ z" ~( A) A! L5 i' R5 K
[MF] Rainbow - Mach Live 4in1 2560x1440i.ts [1.71GB]  Y; n6 [2 H0 ~

2 C9 H( {+ |* H' \3 v' E9 S1 d: d[MF] f(x) - NU ABO Live 4in1 2560x1440i.ts [1.68GB]+ v, y- m" S1 Q0 b
) f$ b7 V* p8 t7 k; d/ L& S
[MF] f(x) - 피노키오 (Danger) LIVE 4in1 2560*1440i.ts [1.52GB]  @  w0 [  n  l9 ?# w8 w, [

! `7 _& x9 p% ?+ c: F[MF] Kara - Lupin Live 4in1 2560x1440i.ts [1.49GB]) C" `  T) Y' [$ ^! d

: o5 C- G1 J( Y" d6 G[MF] Kara - Jumping Live 4in1 2560x1440i.ts [1.49GB]  r  ?" _0 h4 D3 ?) p+ ^
- Q# ]7 e; x" `/ Z
[MF] Orange Caramel - A~ing♡ Live 4in1 2560x1440i.ts [1.83GB]# r) n- @: Y% d2 }) I- G

' f- {9 Q- L! q% r* W, m& g) Z6 f$ Y[MF] A Pink - I Don't Know Live 4in1 2560x1440i.ts [1.61GB]
  _, T' W: l5 }0 B1 D' ^/ q3 w+ I6 I% d6 {1 p% a, ?$ ^7 j3 A5 N
    Format : MPEG-TS  ~; I. z+ [- @( Q1 |% i4 I
    File size : 1.55 GiB
% v! k' W$ v5 B$ ?    Duration : 4mn 0s
( o1 O3 X% l* y; v" v4 x" v    Overall bit rate : 55.2 Mbps
, E+ ~4 D- z/ _    Maximum Overall bit rate : 35.5 Mbps
# `0 D! k2 q0 K- k  Video #4113
% K$ v' L0 h( X2 B    ID : 4113 (0x1011)
# t) i' W8 i0 a; \5 j    Menu ID : 1 (0x1)
% H2 f0 {) M* f% T" d; W$ s    Format : MPEG Video3 u& \( |% z) j9 o# T4 c
    Format version : Version 2- G( D% g1 n! R8 n! k
    Format profile : Main@Main
/ ]& k4 Q/ `4 H' v. O" E    Format settings, BVOP : Yes" _" c/ g: u( K  ^3 h- d4 N
    Format settings, Matrix : Default
7 ]) I4 Q: f) b% U9 C6 Y    Duration : 4mn 0s# ^' ]0 b8 J% ^  @0 G
    Bit rate mode : Variable) S4 t. {4 h0 @
    Bit rate : 52.0 Mbps
2 T& F  v, z, Z0 V8 z( B7 i1 _" j/ p    Width : 2 560 pixels
# q3 p2 x& _4 M) k( s9 d    Height : 1 440 pixels( `6 w9 ~; _, O% Y' U* Q( G' ?
    Display aspect ratio : 16:9
5 w0 D/ Q( o7 Z# W3 K7 U# ]! \    Frame rate : 29.970 fps
) u* y6 f* Z4 m$ H9 X$ a    Color space : YUV
0 s$ J; a* I% o4 J0 ]    Chroma subsampling : 4:2:0
8 P& c9 O& t) n    Bit depth : 8 bits" ~$ e; S. A% N$ {# A
    Scan type : Interlaced
  A4 U+ x. J! N8 m: B9 C. k) J5 r  H    Scan order : Top Field First
: ], ?! O% b# x6 v- c    Bits/(Pixel*Frame) : 0.471
4 d0 M" w) |/ e; M    Stream size : 1.43 GiB (92%)
! r; B) g4 j8 C1 ]0 o  Audio #4352$ B2 q9 w) Q% B9 ?! A
    ID : 4352 (0x1100)
+ W# B# r) [/ u8 I    Menu ID : 1 (0x1)
5 R3 I; {+ L5 m% W9 R: A$ Z( r5 B! v    Format : AC-3% T9 K& t9 ^( U( D+ j4 f, f. x
    Format/Info : Audio Coding 3
& p3 R' z0 j" |  L    Mode extension : CM (complete main)/ N" y2 E" K5 E9 t; i! x1 f
    Duration : 4mn 0s: w4 ~$ k7 x# r; ~- A; k
    Bit rate mode : Constant
4 B) N- w) E1 _  ], x$ i    Bit rate : 448 Kbps9 C1 y' _( n3 k# W
    Channel(s) : 6 channels
3 _. K# D* ~6 i. f  ^    Channel positions : Front: L C R, Side: L R, LFE
/ G% s1 ?( w& V/ B, K6 A/ X! {    Sampling rate : 48.0 KHz
$ O- T' p" P8 K3 S    Bit depth : 16 bits
9 l8 x' f! `7 N  v5 W    Stream size : 12.9 MiB (1%); M. M! l! ]$ p2 i) b/ m, P: S
    Language : Korean" o  m4 M2 t4 h$ `/ ?2 ~; f/ }& G% V
  Audio #4353
1 E, q4 i1 `* j6 R( c    ID : 4353 (0x1101)9 N1 W' {; `; Z) P- q6 R" U
    Menu ID : 1 (0x1)6 H0 s/ D' e7 [
    Format : AC-3
9 }/ _* h; u5 G9 b6 }" N2 Z/ a  F" a    Format/Info : Audio Coding 3- S& I4 f: Z0 @% [- T/ D- u% ~
    Mode extension : CM (complete main)
7 V" g- \- C2 B+ ?    Duration : 4mn 0s4 t# r) V. S6 q% f5 R
    Bit rate mode : Constant4 F  w, r/ H: K; F( f5 `$ Q- N
    Bit rate : 384 Kbps7 \$ n- ?& I& t* ]- T, n$ d
    Channel(s) : 2 channels8 d- r/ u9 L" ~2 {
    Channel positions : Front: L R' T: ?7 S, O5 }4 W. F9 }2 t/ C
    Sampling rate : 48.0 KHz8 E9 }% z8 r% q7 I
    Bit depth : 16 bits$ _7 x8 }( d# [' j$ t
    Stream size : 11.0 MiB (1%)
" _/ N% H& D" z+ `. a( ?4 `$ K    Language : Korean* p8 T9 |  W. i8 L) e# x. C& d
  Audio #4354
# V6 @% F0 G: h: K8 g0 d8 t. G    ID : 4354 (0x1102)
: Y* r; G: E$ C& N    Menu ID : 1 (0x1)$ @6 ]8 T: |# u" R
    Format : AC-3" A( [; ~. h0 c5 L3 ^1 @) i; `
    Format/Info : Audio Coding 3
* z3 X" t3 B7 v    Mode extension : CM (complete main)5 \. F1 _6 K% |8 g3 l" V# G
    Duration : 4mn 0s' F5 r7 T- p8 }7 r7 p: R8 A3 A
    Bit rate mode : Constant1 B' Y5 x# o+ r; e- [+ r0 x
    Bit rate : 384 Kbps
0 d- r3 @  a0 |    Channel(s) : 2 channels/ q8 ?( X$ i/ T+ \
    Channel positions : Front: L R
: U8 v6 ~7 Y' Y7 x  j% \1 T    Sampling rate : 48.0 KHz! e& W" S" ^( R- H6 ~. N6 k, Y
    Bit depth : 16 bits
& N0 A9 K0 T& c( E. @0 A) m    Stream size : 11.0 MiB (1%)
0 _& }  R1 q$ x9 n1 m% K  b    Language : Korean" Z# F+ i9 Z, f/ K
  Audio #4355
5 P1 w, n6 g: G  i3 C    ID : 4355 (0x1103)
2 O% d( l; a8 u! a6 e- I% N, o    Menu ID : 1 (0x1)- ~6 R% T, h8 [9 ?4 I& O
    Format : AC-3
6 u0 `5 @- \: }( {$ Q    Format/Info : Audio Coding 3/ I4 l9 Y& H, q5 _0 J% p
    Mode extension : CM (complete main)
; c& \6 M0 `! }  l5 m  |0 L    Duration : 4mn 0s5 i9 {# t+ X* A4 `- {
    Bit rate mode : Constant
2 V* |: J1 [* a* l0 J- Z# R    Bit rate : 384 Kbps, D" ?* h# Q) r$ H* ~
    Channel(s) : 2 channels- o, Y: F7 g; p3 {5 f3 C
    Channel positions : Front: L R1 |- ]4 f  w/ w2 X  n+ k5 s8 k
    Sampling rate : 48.0 KHz* p. U% ?& d/ z
    Bit depth : 16 bits. W$ B6 C( D7 H8 F% S
    Stream size : 11.0 MiB (1%)
! h: T1 v8 Q# _0 K, P2 O3 J# Q    Language : Korean
, u7 w' m0 j: o+ h" S9 L
/ Y9 S% T! `$ r( |# Y4 `0 J. ] Rainbow - To Me Live 4in1 (2560x1440i)1.jpg Rainbow - To Me Live 4in1 (2560x1440i).ts.jpg . r( S  a: L6 c! ?2 v

/ G9 s, `, X- z  C
訪客,如果您要查看本文隱藏內容請回覆

評分

參與人數 1名聲 +2 精幣 +2 收起 理由
kingleo + 2 + 2 精品文章

查看全部評分


發表於 2011-5-5 22:35:17 | 顯示全部樓層
本文章最後由 l8452165 於 2011-5-5 22:38 編輯 & @' h7 v: i0 V  B2 n

2 {+ i5 I7 J! C1 g# x彩紅的4合一收過之前的歌曲
$ H# X0 ]/ p0 m1 }) r; O效果都不錯..放在大螢幕更有一種群魔亂舞的魅力XD
1 Y4 \. }% H% o, A感謝上傳MF

評分

參與人數 1精幣 +1 收起 理由
wei781212 + 1 您說的是 A 4in1 對吧~~

查看全部評分

回覆 支持 反對

使用道具 檢舉


發表於 2011-5-5 22:47:08 | 顯示全部樓層
第一次看到這種規格的影片
5 L' A3 ~5 `* q9 f3 K( I' B不知道電腦是否播的動>"<. |9 k0 ?* w' D6 e  b& V
下載試看^^
回覆 支持 反對

使用道具 檢舉


發表於 2011-5-5 23:18:54 | 顯示全部樓層
版大.2 N& E; }! P$ P; H; Z
你也太強了
4 P) \: ~/ t8 @0 ~  q3 l電腦要夠強才能制作這類影片吧) T' I8 Q! t$ X9 d+ T
幸苦版大.感謝
回覆 支持 反對

使用道具 檢舉


發表於 2011-5-5 23:42:34 | 顯示全部樓層
There has been so many of these videos lately- ?- y/ I0 V9 I1 Q
4 performances in just a video is just too awesome
回覆 支持 反對

使用道具 檢舉


發表於 2011-5-5 23:49:59 | 顯示全部樓層
哇4 in 1的版本喔~謝謝喔
# N. t, {, z- J下次還有更高的吧 oh a oh a oh a
回覆 支持 反對

使用道具 檢舉


發表於 2011-5-6 00:01:04 | 顯示全部樓層

1 K6 o( g2 A6 T3 p0 Z& r' D* B
5 c1 A: z" @+ }$ d7 q, g. c. x
, y( |% l9 V8 S4 a, A" J0 i3 t A & Mach 都有收過..效果很好!
回覆 支持 反對

使用道具 檢舉


 樓主| 發表於 2011-5-6 00:04:31 | 顯示全部樓層
A & Mach 都有收過..效果很好!  ~8 c5 T' V; d! g& N* Q& d
l8452165 發表於 2011-5-6 00:01

' x( T; \8 {* y, ]9 m' @
% w& n1 V* y/ Z1 i0 d剛找了一下 Mach 4in1 1 P* M; A/ K3 @- n# S3 X( M2 i! w
之前好像不小心被我砍掉了
回覆 支持 反對

使用道具 檢舉


發表於 2011-5-6 00:08:47 | 顯示全部樓層
To Me 的 4in1 版本
" X1 Y' G( u. Q+ A) N- {! X/ x必须收藏~rainbow大发~
% j2 j% O) t) B. F* x谢谢大大分享
回覆 支持 反對

使用道具 檢舉


發表於 2011-5-6 01:21:13 | 顯示全部樓層
太神了吧,連這個超辣女團都有這種超高清,流口水了啦
回覆 支持 反對

使用道具 檢舉


發表於 2011-5-6 01:29:37 | 顯示全部樓層
剛找了一下 Mach 4in1 : t" ^* G! I: [  n  |* S
之前好像不小心被我砍掉了, H2 w! f; q, [$ \' S& D+ `2 @$ ^
wei781212 發表於 2011-5-6 00:04
3 r+ N7 W1 x* c. {( I5 H+ t

9 f$ f/ t' _4 _4 H4 L# h1 s$ `
' o3 L1 T- B" e但是我網速8M/640K..而且很久沒上傳MF了& [# }3 o. N! ~1 @& x; Z; ~! s
需要什麼上傳器? 該注意什麼?
回覆 支持 反對

使用道具 檢舉


 樓主| 發表於 2011-5-6 01:37:36 | 顯示全部樓層
本文章最後由 wei781212 於 2011-5-6 01:39 編輯
( q1 ~% Z9 M2 i% k' J( t
但是我網速8M/640K..而且很久沒上傳MF了1 N- B( `, ^- _
需要什麼上傳器? 該注意什麼?6 r7 c/ u" j% X- y7 M
l8452165 發表於 2011-5-6 01:29

* x) Z. N" a# X. Y3 \! ^- H
. `( |9 `0 [- {9 M7 G4 N# U/ k剛找回種子 還有種 但目前速度很慘 5~10 Kbps
- d: W% f+ f8 F$ i不知道何時下的完
, w) h" b$ _6 ^7 V不免強!! 如果可以的話就上傳MF就好了~8 u3 ?3 Z- m* c0 i  p
我是直接用網頁傳的!!
7 t" G' y. Z4 g+ v" f2 x! D) I; c. i* @* O
該注意什麼?? 您說是只發文時嗎% E% H) y' y. y: y3 T' Q2 \
如果是這樣 圖一定要有 限2張
, @4 j, a* j# }3 ^; Q像是影片資訊倒是其次 重點檔案是自己上傳的就OK了!!
回覆 支持 反對

使用道具 檢舉


發表於 2011-5-6 01:39:35 | 顯示全部樓層
合集的版本相當的亮眼!收到了!
回覆 支持 反對

使用道具 檢舉


發表於 2011-5-6 01:39:54 | 顯示全部樓層
剛找回種子 還有種 但目前速度很慘 5~10 Kbps
, w. {& T( Y5 U8 `不知道何時下的完: C( l: ]9 O- ~* G
如果可以的話就上傳MF就好了~
( ?5 w  O5 }' T- y+ c我是直接用 ...+ d! |* S: U; i- z. x. C
wei781212 發表於 2011-5-6 01:37

* c! y9 ~" U4 r' ?8 b+ K+ ?; W3 G  t! m4 d3 D3 s) L( V# T6 T

; L8 t* u$ X& s$ J# X2 X 等我上傳好應該是早上了...發帖部分就按照你的格式發囉..
回覆 支持 反對

使用道具 檢舉


發表於 2011-5-6 01:42:50 | 顯示全部樓層
但是我網速8M/640K..而且很久沒上傳MF了
# j- L+ G* h- q需要什麼上傳器? 該注意什麼?
$ ]/ j0 b$ g1 ]% e: [l8452165 發表於 2011-5-6 01:29

, T" [+ P& I: t6 P6 q最近mf改版種花的也可以跑滿了說@@"  h' d$ g# N3 l: m( X
剛找回種子 還有種 但目前速度很慘 5~10 Kbps
: \  j3 w) E; N9 G2 T, U不知道何時下的完
) J8 J/ k* E5 J4 @# w4 \& b% l$ s6 B不免強!! 如果可以的話就上傳MF就好了~
/ L6 i, [2 t/ r* {1 ? ...
5 c# u, W, ~% a* Zwei781212 發表於 2011-5-6 01:37
. Y4 Z& y* ?. Y8 t0 D
我也要...慢抓....
回覆 支持 反對

使用道具 檢舉


 樓主| 發表於 2011-5-6 01:47:03 | 顯示全部樓層
最近mf改版種花的也可以跑滿了說@@"$ T  }1 J( u  g6 M
. M/ ~- W* @' l0 u# J
我也要...慢抓....! s/ k% ]: S' d9 E3 K
唯、昕 發表於 2011-5-6 01:42

3 w( V, X6 G) K: C2 j. o5 L7 h0 c  X1 q( r
我知道現在可跑滿速
1 U0 H9 `- u0 N6 w1 n% Q但不知道是不是我這邊的問題
/ C, g# F& t  o+ H剛開始跑滿速 但是單檔到了50% 或80~90% 有時候速度會剩一半...
回覆 支持 反對

使用道具 檢舉


發表於 2011-5-6 02:01:15 | 顯示全部樓層
回覆 16# wei781212
) V+ J% {0 N$ |2 O4 p! r這我就不知道了說,或許網卡驅動or小烏龜or網路線有問題?1 K) N5 e/ W2 C( y* ~
我上傳是幾乎8分滿至完檔.& p) b' {- ]+ k" l
那mu正常嗎?
回覆 支持 反對

使用道具 檢舉


 樓主| 發表於 2011-5-6 02:10:31 | 顯示全部樓層
本文章最後由 wei781212 於 2011-5-6 02:11 編輯 5 E7 i/ ~' V0 e; a6 n+ _

: [2 v, d4 F! ?回覆 17# 唯、昕 & Q5 |/ E; f  w- g0 V% E/ J3 c
% ~6 m3 `2 R8 k; Q- e" e2 n
MF是偶爾會出現這樣狀況 凌晨就很穩5 L& ~3 P& s% z3 o
大多是一樣的 8分到全速( F" Z& e2 Y; ]# N" P
MU喔 我好久沒用了 不知道-.-
回覆 支持 反對

使用道具 檢舉


發表於 2011-5-6 05:43:55 | 顯示全部樓層
Rainbow魅力無法擋...怎能錯過4合一呢     QQ
回覆 支持 反對

使用道具 檢舉


發表於 2011-5-6 06:07:11 | 顯示全部樓層
之前也收集过这样的版本,可以用电脑播放
# z- K  }9 ?' i. I5 G9 @! M9 d: w5 n3 v# V$ z
但是不能全部看到图像,不知道是不是电脑分辨率的问题呢1 d  ?! N/ c, H' T' k( z, S

, _1 a# L- `2 j, n/ ]! H$ A感谢分享
回覆 支持 反對

使用道具 檢舉

您需要登錄後才可以回文 登錄 | 註冊

再次提醒,當您點擊發表回覆,視同您已經明白本討論區的版規,如不明白請先參見各版版規。

熱門推薦

NHK指定台達8K投影技術轉播2020東奧 臨場感破表
NHK指定台達8K投影技術轉
台達8K投影技術獨步全球,吸引日本東京知名森美術館指定使用在藝
Panasonic 日本製 TH-49GX900W 開箱
Panasonic 日本製 TH-49GX
以日本製120Hz/10bits面板來說,這價格也不貴,CP值算很高的,整
給小朋友的超大電視 OPTOMA HD25
給小朋友的超大電視 OPTOM
以前還是甜蜜兩人世界時,休閒活動總離不開電影,那時周末都跑大
TAA 2020第三十屆國際Hi-End音響大展目前決定延期舉辦
TAA 2020第三十屆國際Hi-E
【TAA 2020第三十屆國際Hi-End音響大展目前決定延期舉辦】 由於
專業人士也爲之傾倒的 FIBBR HDMI光纖線,在2020年日本家庭影院大賞榮獲綜合金賞
專業人士也爲之傾倒的 FIB
4K/HDR時代的新標準! 這是日本音元出版社為FIBBR這一系列產品

聯絡我們| 問題反映| 小黑屋| 手機版| Archiver|  本網站特別聘請 蔡家豪律師 為本站法律顧問

快速回覆 返回頂部 返回列表