查看: 3156|回覆: 21
收起左側

[新品速報] 你Disney+了沒? Disneyplus 台灣開播就在今天(各平台初步測試)

  [複製連結]

發表於 2021-11-12 03:14:19 | 顯示全部樓層 |閱讀模式

馬上註冊,結交更多好友,享用更多功能,讓你輕鬆玩轉社區。

您需要 登入 才可以下載或查看,沒有帳號?註冊

x
1HD01242.JPG

相信不少朋友都已經期盼很久了,就在今天Disneyplus 終於在台灣開播了。花了點時間測試安裝在不同裝置的情況跟各位報告。

PS5
IMAX Enhanced 4K HDR10 Dolby Atmos大全餐,精研小劇院的投影機不支援Dolby Vision。隔了一天之後...
太詭異了,昨晚測試明明PS5可以4K,今天打開變成HD了!!該不會是台灣太多人捧場了怕塞車,乾脆降低畫質降低流量了??

1HD01241.JPG
1HD01270.JPG

NVIDIA SHIELD TV Pro
竟然只有HD畫質,甚至連HDR都沒有
1HD01244.JPG


SHARP 8K電視 SHARP AQUOS 8T-C80AX1T
IMAX Enhanced 4K HDR10 不過聲音只有5.1聲道
1HD01240.JPG

1HD01235.JPG

1HD01237.JPG

1HD01239.JPG

這邊可以看到使用IMAX Enhanced 所支援的所有格式
1HD01238.JPG

1HD01236.JPG

1HD01234.JPG

Sony手機 Xperia 1
只有HD畫質,不過HDR的表現真的很不錯
Screenshot_20211112-025719.png

Screenshot_20211112-024244.png

影片播放時的畫面無法手機截圖,只好拿出另一台相機拍翻
1HD01247.JPG

1HD01248.JPG

Chromecast with Google TV +JMGO堅果U2pro三雷射
全面支援,而且色彩表現出奇的好!
由於堅果U2pro三雷射這台超短焦投影機是大陸國內版本,自然無法支援標準的Google TV的完整功能,台灣總代理在銷售時很貼心的附贈了Chromecast with Google TV,發揮了完整功能,也不枉這一台三色雷射的優異表現。

1HD01285.JPG

1HD01275.JPG

1HD01271.JPG

1HD01277.JPG

1HD01280.JPG
LG OLED B7T
整理中...

測試到一半,畫面一直轉圈圈,然後就變這樣...不知道是不是因為第一天,太多人都不睡覺在看片,塞車了!
1HD01245.JPG

自從Disney宣布不再出版實體光碟之後,便積極的推動Disney+這個OTT平台,甚至很多新上映的電影都與院線同步放映。之前應該也不少朋友都透過特殊管道取得了檔案,實際觀看過了在Disney+串流平台上的表現。整體來說畫質上還算可以接受,不過音效上和實體光碟比較的話,真的有一段不小的落差。

Disney+在台灣開台還是感到非常開心,畢竟家裡有小孩的家庭,迪士尼很多作品都非常適合闔家觀賞的。

有一點要特別提醒的是,Disney+ 上的 IMAX Enhanced 僅包含特大畫面比例。Disney+ 目前暫不提供其他 IMAX Enhanced 的特色及功能。」這一點等於算是半套的IMAX Enhanced,希望未來能供應全套的服務。有關這一點,官方網站也針對影像品質部分做了說明,請參閱:https://help.disneyplus.com/csp? ... 8d01830269ed3961966

如果有其他裝置想測試的朋友,這邊我找到一個最新版本的APK可以試試看。
Disney_v2.2.0-rc5_apkpure.com
Disney_v2.2.0-rc5_apkpure.com.rar (19.59 MB, 下載次數: 132)















 樓主| 發表於 2021-11-12 04:33:55 | 顯示全部樓層
預設的字幕有一塊黑底看了很倒彈,聽說可以透過帳號設定調整,繼續研究中。
S__7118989.jpg



回覆 支持 反對

使用道具 舉報


發表於 2021-11-12 07:37:34 | 顯示全部樓層
本文最後由 popo 於 2021-11-12 07:39 AM 編輯

有鄉民反應NVIDIA SHIELD TV Pro,要去裝置偏好設定,顯示和聲音才會出現,4K及Dolby Atmos。
回覆 支持 反對

使用道具 舉報


發表於 2021-11-12 09:49:17 | 顯示全部樓層
PS5 我看大家都說只有1080P ,為何站長可以弄出4K
是設定上的問題嗎
回覆 支持 反對

使用道具 舉報


發表於 2021-11-12 10:53:44 | 顯示全部樓層
關於Nvidia Shield TV Pro, 可以參考Reddit上面的討論

https://www.reddit.com/r/nvidias ... ng_4k_on_shield_tv/
回覆 支持 反對

使用道具 舉報


發表於 2021-11-12 12:12:12 | 顯示全部樓層
Sony 9500G裝完app後只顯示HD,沒有4K,不曉得有沒有其他網友碰到同樣的問題?
回覆 支持 反對

使用道具 舉報


發表於 2021-11-12 13:06:40 | 顯示全部樓層
LG 65C9 本來找不到app裝,網友告知地區設置哥倫比亞其他國家可以自己出現disney +,晚上再看一下台灣是否已有該app
回覆 支持 反對

使用道具 舉報


發表於 2021-11-12 14:40:44 | 顯示全部樓層
本文最後由 freeblade 於 2021-11-12 02:42 PM 編輯

為啥樓主的PS5有4K阿? 是啥情況 難道是我接綜擴導致? 可是我看起來樓主也有接阿 問號?而且最大疑問是PS5不是不支援Dolby Atmos嗎?
回覆 支持 反對

使用道具 舉報


發表於 2021-11-12 16:48:00 | 顯示全部樓層
zidoo 1000 上面不知道能不能安裝使用
回覆 支持 反對

使用道具 舉報


 樓主| 發表於 2021-11-12 16:54:29 | 顯示全部樓層
太詭異了,昨晚測試明明PS5可以4K,今天打開變成HD了!!
該不會是台灣太多人捧場了怕塞車,乾脆降低畫質降低流量了??
回覆 支持 反對

使用道具 舉報


發表於 2021-11-12 17:04:57 | 顯示全部樓層
小米盒子也只有hd@@
回覆 支持 反對

使用道具 舉報


 樓主| 發表於 2021-11-12 21:22:58 | 顯示全部樓層
頂樓新增了Chromecast with Google TV +JMGO堅果U2pro三雷射測試。
回覆 支持 反對

使用道具 舉報


發表於 2021-11-12 22:23:14 | 顯示全部樓層
給力!!!洗牌中。。
  1. Format                                   : Matroska
  2. Format version                           : Version 4
  3. File size                                : 34.4 GiB
  4. Duration                                 : 3 h 1 min
  5. Overall bit rate mode                    : Variable
  6. Overall bit rate                         : 27.2 Mb/s
  7. Movie name                               : Avengers.Endgame.2019.IMAX.2160p.DSNP.WEB-DL.DTS-HD.MA.TrueHD.7.1.Atmos.DV.MKV
  8. Encoded date                             : UTC 2021-11-11 18:06:09
  9. Writing application                      : mkvmerge v62.0.0.1 ('Apollo') 64-bit
  10. Writing library                          : libebml v1.4.2 + libmatroska v1.6.4

  11. Video
  12. ID                                       : 1
  13. Format                                   : HEVC
  14. Format/Info                              : High Efficiency Video Coding
  15. Format profile                           : Main 10@L5@High
  16. HDR format                               : Dolby Vision, Version 1.0, dvhe.05.06, BL+RPU
  17. Codec ID                                 : V_MPEGH/ISO/HEVC
  18. Duration                                 : 3 h 1 min
  19. Bit rate                                 : 16.5 Mb/s
  20. Width                                    : 3 840 pixels
  21. Height                                   : 2 160 pixels
  22. Display aspect ratio                     : 16:9
  23. Frame rate mode                          : Constant
  24. Frame rate                               : 23.976 (24000/1001) FPS
  25. Color space                              : YUV
  26. Chroma subsampling                       : 4:2:0
  27. Bit depth                                : 10 bits
  28. Bits/(Pixel*Frame)                       : 0.083
  29. Stream size                              : 20.9 GiB (61%)
  30. Default                                  : Yes
  31. Forced                                   : No
  32. Color range                              : Full

  33. Audio #1
  34. ID                                       : 2
  35. Format                                   : MLP FBA 16-ch
  36. Format/Info                              : Meridian Lossless Packing FBA with 16-channel presentation
  37. Commercial name                          : Dolby TrueHD with Dolby Atmos
  38. Codec ID                                 : A_TRUEHD
  39. Duration                                 : 3 h 1 min
  40. Bit rate mode                            : Variable
  41. Bit rate                                 : 4 777 kb/s
  42. Maximum bit rate                         : 8 430 kb/s
  43. Channel(s)                               : 8 channels
  44. Channel layout                           : L R C LFE Ls Rs Lb Rb
  45. Sampling rate                            : 48.0 kHz
  46. Frame rate                               : 1 200.000 FPS (40 SPF)
  47. Compression mode                         : Lossless
  48. Stream size                              : 6.04 GiB (18%)
  49. Title                                    : TrueHD 7.1 Atmos
  50. Language                                 : English
  51. Default                                  : Yes
  52. Forced                                   : No
  53. Number of dynamic objects                : 13
  54. Bed channel count                        : 1 channel
  55. Bed channel configuration                : LFE

  56. Audio #2
  57. ID                                       : 3
  58. Format                                   : DTS XLL
  59. Format/Info                              : Digital Theater Systems
  60. Commercial name                          : DTS-HD Master Audio
  61. Codec ID                                 : A_DTS
  62. Duration                                 : 3 h 1 min
  63. Bit rate mode                            : Variable
  64. Bit rate                                 : 4 416 kb/s
  65. Channel(s)                               : 8 channels
  66. Channel layout                           : C L R LFE Lb Rb Lss Rss
  67. Sampling rate                            : 48.0 kHz
  68. Frame rate                               : 93.750 FPS (512 SPF)
  69. Bit depth                                : 24 bits
  70. Compression mode                         : Lossless
  71. Delay relative to video                  : 6 ms
  72. Stream size                              : 5.59 GiB (16%)
  73. Title                                    : DTS-HD MA 7.1
  74. Language                                 : English
  75. Default                                  : No
  76. Forced                                   : No

  77. Audio #3
  78. ID                                       : 4
  79. Format                                   : AC-3
  80. Format/Info                              : Audio Coding 3
  81. Commercial name                          : Dolby Digital
  82. Codec ID                                 : A_AC3
  83. Duration                                 : 3 h 1 min
  84. Bit rate mode                            : Constant
  85. Bit rate                                 : 640 kb/s
  86. Channel(s)                               : 6 channels
  87. Channel layout                           : L R C LFE Ls Rs
  88. Sampling rate                            : 48.0 kHz
  89. Frame rate                               : 31.250 FPS (1536 SPF)
  90. Compression mode                         : Lossy
  91. Delay relative to video                  : 28 ms
  92. Stream size                              : 829 MiB (2%)
  93. Title                                    : DD 5.1
  94. Language                                 : English
  95. Service kind                             : Complete Main
  96. Default                                  : No
  97. Forced                                   : No

  98. Audio #4
  99. ID                                       : 5
  100. Format                                   : E-AC-3 JOC
  101. Format/Info                              : Enhanced AC-3 with Joint Object Coding
  102. Commercial name                          : Dolby Digital Plus with Dolby Atmos
  103. Codec ID                                 : A_EAC3
  104. Duration                                 : 3 h 1 min
  105. Bit rate mode                            : Constant
  106. Bit rate                                 : 768 kb/s
  107. Channel(s)                               : 6 channels
  108. Channel layout                           : L R C LFE Ls Rs
  109. Sampling rate                            : 48.0 kHz
  110. Frame rate                               : 31.250 FPS (1536 SPF)
  111. Compression mode                         : Lossy
  112. Stream size                              : 995 MiB (3%)
  113. Title                                    : DDP 5.1 Atmos
  114. Language                                 : English
  115. Service kind                             : Complete Main
  116. Default                                  : No
  117. Forced                                   : No
  118. Complexity index                         : 16
  119. Number of dynamic objects                : 15
  120. Bed channel count                        : 1 channel
  121. Bed channel configuration                : LFE

  122. Text #1
  123. ID                                       : 6
  124. Format                                   : UTF-8
  125. Codec ID                                 : S_TEXT/UTF8
  126. Codec ID/Info                            : UTF-8 Plain Text
  127. Duration                                 : 3 h 0 min
  128. Bit rate                                 : 50 b/s
  129. Count of elements                        : 2633
  130. Stream size                              : 67.2 KiB (0%)
  131. Title                                    : [CC]
  132. Language                                 : English
  133. Default                                  : No
  134. Forced                                   : No

  135. Text #2
  136. ID                                       : 7
  137. Format                                   : UTF-8
  138. Codec ID                                 : S_TEXT/UTF8
  139. Codec ID/Info                            : UTF-8 Plain Text
  140. Duration                                 : 3 h 0 min
  141. Bit rate                                 : 38 b/s
  142. Count of elements                        : 1474
  143. Stream size                              : 50.8 KiB (0%)
  144. Language                                 : Danish
  145. Default                                  : No
  146. Forced                                   : No

  147. Text #3
  148. ID                                       : 8
  149. Format                                   : UTF-8
  150. Codec ID                                 : S_TEXT/UTF8
  151. Codec ID/Info                            : UTF-8 Plain Text
  152. Duration                                 : 3 h 0 min
  153. Bit rate                                 : 39 b/s
  154. Count of elements                        : 2108
  155. Stream size                              : 52.1 KiB (0%)
  156. Language                                 : German
  157. Default                                  : No
  158. Forced                                   : No

  159. Text #4
  160. ID                                       : 9
  161. Format                                   : UTF-8
  162. Codec ID                                 : S_TEXT/UTF8
  163. Codec ID/Info                            : UTF-8 Plain Text
  164. Duration                                 : 2 h 47 min
  165. Bit rate                                 : 48 b/s
  166. Count of elements                        : 2197
  167. Stream size                              : 59.9 KiB (0%)
  168. Title                                    : Latin American
  169. Language                                 : Spanish
  170. Default                                  : No
  171. Forced                                   : No

  172. Text #5
  173. ID                                       : 10
  174. Format                                   : UTF-8
  175. Codec ID                                 : S_TEXT/UTF8
  176. Codec ID/Info                            : UTF-8 Plain Text
  177. Duration                                 : 3 h 0 min
  178. Bit rate                                 : 46 b/s
  179. Count of elements                        : 2407
  180. Stream size                              : 61.0 KiB (0%)
  181. Title                                    : Latin American [CC]
  182. Language                                 : Spanish
  183. Default                                  : No
  184. Forced                                   : No

  185. Text #6
  186. ID                                       : 11
  187. Format                                   : UTF-8
  188. Codec ID                                 : S_TEXT/UTF8
  189. Codec ID/Info                            : UTF-8 Plain Text
  190. Duration                                 : 3 h 0 min
  191. Bit rate                                 : 41 b/s
  192. Count of elements                        : 2176
  193. Stream size                              : 55.6 KiB (0%)
  194. Title                                    : European
  195. Language                                 : Spanish
  196. Default                                  : No
  197. Forced                                   : No

  198. Text #7
  199. ID                                       : 12
  200. Format                                   : UTF-8
  201. Codec ID                                 : S_TEXT/UTF8
  202. Codec ID/Info                            : UTF-8 Plain Text
  203. Duration                                 : 3 h 0 min
  204. Bit rate                                 : 43 b/s
  205. Count of elements                        : 2187
  206. Stream size                              : 57.7 KiB (0%)
  207. Language                                 : Finnish
  208. Default                                  : No
  209. Forced                                   : No

  210. Text #8
  211. ID                                       : 13
  212. Format                                   : UTF-8
  213. Codec ID                                 : S_TEXT/UTF8
  214. Codec ID/Info                            : UTF-8 Plain Text
  215. Duration                                 : 3 h 0 min
  216. Bit rate                                 : 61 b/s
  217. Count of elements                        : 2741
  218. Stream size                              : 82.1 KiB (0%)
  219. Title                                    : [CC]
  220. Language                                 : French
  221. Default                                  : No
  222. Forced                                   : No

  223. Text #9
  224. ID                                       : 14
  225. Format                                   : UTF-8
  226. Codec ID                                 : S_TEXT/UTF8
  227. Codec ID/Info                            : UTF-8 Plain Text
  228. Duration                                 : 3 h 0 min
  229. Bit rate                                 : 36 b/s
  230. Count of elements                        : 1990
  231. Stream size                              : 48.7 KiB (0%)
  232. Language                                 : French
  233. Default                                  : No
  234. Forced                                   : No

  235. Text #10
  236. ID                                       : 15
  237. Format                                   : UTF-8
  238. Codec ID                                 : S_TEXT/UTF8
  239. Codec ID/Info                            : UTF-8 Plain Text
  240. Duration                                 : 3 h 0 min
  241. Bit rate                                 : 47 b/s
  242. Count of elements                        : 2196
  243. Stream size                              : 62.8 KiB (0%)
  244. Language                                 : Icelandic
  245. Default                                  : No
  246. Forced                                   : No

  247. Text #11
  248. ID                                       : 16
  249. Format                                   : UTF-8
  250. Codec ID                                 : S_TEXT/UTF8
  251. Codec ID/Info                            : UTF-8 Plain Text
  252. Duration                                 : 3 h 0 min
  253. Bit rate                                 : 46 b/s
  254. Count of elements                        : 2192
  255. Stream size                              : 61.6 KiB (0%)
  256. Language                                 : Italian
  257. Default                                  : No
  258. Forced                                   : No

  259. Text #12
  260. ID                                       : 17
  261. Format                                   : UTF-8
  262. Codec ID                                 : S_TEXT/UTF8
  263. Codec ID/Info                            : UTF-8 Plain Text
  264. Duration                                 : 3 h 1 min
  265. Bit rate                                 : 35 b/s
  266. Count of elements                        : 2049
  267. Stream size                              : 47.4 KiB (0%)
  268. Language                                 : Japanese
  269. Default                                  : No
  270. Forced                                   : No

  271. Text #13
  272. ID                                       : 18
  273. Format                                   : UTF-8
  274. Codec ID                                 : S_TEXT/UTF8
  275. Codec ID/Info                            : UTF-8 Plain Text
  276. Duration                                 : 2 h 47 min
  277. Bit rate                                 : 46 b/s
  278. Count of elements                        : 2191
  279. Stream size                              : 57.5 KiB (0%)
  280. Language                                 : Korean
  281. Default                                  : No
  282. Forced                                   : No

  283. Text #14
  284. ID                                       : 19
  285. Format                                   : UTF-8
  286. Codec ID                                 : S_TEXT/UTF8
  287. Codec ID/Info                            : UTF-8 Plain Text
  288. Duration                                 : 3 h 0 min
  289. Bit rate                                 : 40 b/s
  290. Count of elements                        : 2195
  291. Stream size                              : 53.6 KiB (0%)
  292. Language                                 : Norwegian
  293. Default                                  : No
  294. Forced                                   : No

  295. Text #15
  296. ID                                       : 20
  297. Format                                   : UTF-8
  298. Codec ID                                 : S_TEXT/UTF8
  299. Codec ID/Info                            : UTF-8 Plain Text
  300. Duration                                 : 3 h 0 min
  301. Bit rate                                 : 44 b/s
  302. Count of elements                        : 2191
  303. Stream size                              : 58.3 KiB (0%)
  304. Title                                    : Brazilian
  305. Language                                 : Portuguese
  306. Default                                  : No
  307. Forced                                   : No

  308. Text #16
  309. ID                                       : 21
  310. Format                                   : UTF-8
  311. Codec ID                                 : S_TEXT/UTF8
  312. Codec ID/Info                            : UTF-8 Plain Text
  313. Duration                                 : 3 h 0 min
  314. Bit rate                                 : 55 b/s
  315. Count of elements                        : 3878
  316. Stream size                              : 74.2 KiB (0%)
  317. Title                                    : Brazilian [CC]
  318. Language                                 : Portuguese
  319. Default                                  : No
  320. Forced                                   : No

  321. Text #17
  322. ID                                       : 22
  323. Format                                   : UTF-8
  324. Codec ID                                 : S_TEXT/UTF8
  325. Codec ID/Info                            : UTF-8 Plain Text
  326. Duration                                 : 3 h 0 min
  327. Bit rate                                 : 45 b/s
  328. Count of elements                        : 2081
  329. Stream size                              : 60.4 KiB (0%)
  330. Language                                 : Portuguese
  331. Default                                  : No
  332. Forced                                   : No

  333. Text #18
  334. ID                                       : 23
  335. Format                                   : UTF-8
  336. Codec ID                                 : S_TEXT/UTF8
  337. Codec ID/Info                            : UTF-8 Plain Text
  338. Duration                                 : 3 h 0 min
  339. Bit rate                                 : 41 b/s
  340. Count of elements                        : 1614
  341. Stream size                              : 54.7 KiB (0%)
  342. Language                                 : Swedish
  343. Default                                  : No
  344. Forced                                   : No

  345. Text #19
  346. ID                                       : 24
  347. Format                                   : UTF-8
  348. Codec ID                                 : S_TEXT/UTF8
  349. Codec ID/Info                            : UTF-8 Plain Text
  350. Duration                                 : 2 h 53 min
  351. Bit rate                                 : 43 b/s
  352. Count of elements                        : 2275
  353. Stream size                              : 55.7 KiB (0%)
  354. Title                                    : Simplified
  355. Language                                 : Chinese
  356. Default                                  : No
  357. Forced                                   : No

  358. Text #20
  359. ID                                       : 25
  360. Format                                   : UTF-8
  361. Codec ID                                 : S_TEXT/UTF8
  362. Codec ID/Info                            : UTF-8 Plain Text
  363. Duration                                 : 3 h 0 min
  364. Bit rate                                 : 35 b/s
  365. Count of elements                        : 2206
  366. Stream size                              : 47.5 KiB (0%)
  367. Title                                    : Traditional
  368. Language                                 : Chinese
  369. Default                                  : No
  370. Forced                                   : No

  371. Text #21
  372. ID                                       : 26
  373. Format                                   : UTF-8
  374. Codec ID                                 : S_TEXT/UTF8
  375. Codec ID/Info                            : UTF-8 Plain Text
  376. Duration                                 : 3 h 0 min
  377. Bit rate                                 : 31 b/s
  378. Count of elements                        : 2206
  379. Stream size                              : 42.2 KiB (0%)
  380. Title                                    : Hong Kong
  381. Language                                 : Chinese
  382. Default                                  : No
  383. Forced                                   : No
複製代碼


回覆 支持 反對

使用道具 舉報


發表於 2021-11-13 16:43:44 | 顯示全部樓層
好事,就是不知會不會有別於北美版,比如最新熱門大片不提供
回覆 支持 反對

使用道具 舉報


發表於 2021-11-15 10:37:54 | 顯示全部樓層
Apple TV 4K 裝上 Disney plus app 播放 尚氣與十環 Dolby Vision+Dolby Atmos 沒問題
回覆 支持 反對

使用道具 舉報


發表於 2021-11-15 10:39:33 | 顯示全部樓層
如果用 Philips OLED 934 的 Disney plus app 只有 DV 沒有 Atmos
回覆 支持 反對

使用道具 舉報


發表於 2021-11-15 10:53:49 | 顯示全部樓層
Philips OLED 934 Disney plus app 說有 Atmos ... 可是播放時沒點燈
Apple TV 4K 連上 Philips OLED 934 播放時點燈 Atmos
IMG_3609.jpg



回覆 支持 反對

使用道具 舉報


發表於 2021-11-16 18:31:25 | 顯示全部樓層
推ㄍ
回覆

使用道具 舉報


發表於 2021-11-19 09:55:14 | 顯示全部樓層
4K是網速到了自動的麼
回覆 支持 反對

使用道具 舉報


發表於 2021-11-20 19:46:57 | 顯示全部樓層
ppp321 發表於 2021-11-19 09:55 AM
4K是網速到了自動的麼

應該是顯示器 4K + 25 Mbps 以上的穩定網路連線速度
回覆 支持 反對

使用道具 舉報

您需要登入後才可以回文 登入 | 註冊

本版積分規則

熱門推薦

MINI时代,该你上场了!
MINI时代,该你上场了!
想要把客厅改造成高标准的家庭影院,而且不占用空间地在家尽情享
四個月改造,音場元宇宙:KK 700 Pro全餐+Starke A7.5/AD4.320 雙雄到位
四個月改造,音場元宇宙:
四個月改造,音場元宇宙:KK 700 Pro全餐+Starke A7.5/AD4.320
麻雀劇院夢圓關箱文 - 五臟六腑終於集滿了!Ken Kreisel K700pro/KS700+ STARKE A7 mk2就位!
麻雀劇院夢圓關箱文 - 五
麻雀劇院幸福夢圓 - 五臟六腑終於集滿了!Ken Kreisel K700pro/K
(KK 700 Pro開箱聆聽感想) 小空間,大規格,低聲量,高細節
(KK 700 Pro開箱聆聽感想)
(KK 700 Pro開箱聆聽感想) 小空間,大規格,低聲量,高細節 一切
致敬熱愛 不負所托 | FIBBR高品質喇叭線材重磅上市!
致敬熱愛 不負所托 | FIBB
​時值FIBBR成立6周年,為回饋廣大粉絲的支持與厚愛,FIBBR深入

聯絡我們| 問題反映| 小黑屋| 手機版| Archiver|  本網站特別聘請 蔡家豪律師 為本站法律顧問

快速回覆 返回頂部 返回列表