查看: 146|回覆: 0
收起左側

[HD Demo] [2K.6声道风景片] 时间的风景TimeScapes[YUV444p10_1080p][x264_5.1ch_flac][MKV/4.7G]

[複製連結]
發表於 7 天前 | 顯示全部樓層 |閱讀模式

馬上註冊,結交更多好友,享用更多功能,讓你輕鬆玩轉社區。

您需要 登錄 才可以下載或查看,沒有帳號?註冊

x
本帖最後由 刘302 於 2018-11-7 06:11 PM 編輯
5 F0 |- s* X* M4 ~) m, Q6 y4 V
[2K.6声道风景片] 时间的风景TimeScapes[YUV444p10_1080p][x264_5.1ch_flac].mkv_0001.jpg # K4 Y- R- `  p9 i; T
% J6 E. _6 P8 B' x
[2K.6声道风景片] 时间的风景TimeScapes[YUV444p10_1080p][x264_5.1ch_flac].mkv_0003.jpg ( X+ l' O  W4 n
0 N: p0 r: G+ h% F4 ?
[2K.6声道风景片] 时间的风景TimeScapes[YUV444p10_1080p][x264_5.1ch_flac].mkv_0018.jpg
) P" S4 {& m1 V! M! u, l& i) }4 g) G6 p) M& L4 C/ }1 F
[2K.6声道风景片] 时间的风景TimeScapes[YUV444p10_1080p][x264_5.1ch_flac].mkv_0021.jpg
7 U0 Z  A' Q8 K/ ^; V' _) @2 H/ m- F# }* d4 N2 ^
[2K.6声道风景片] 时间的风景TimeScapes[YUV444p10_1080p][x264_5.1ch_flac].mkv_0023.jpg & |8 i& M9 i) t0 d* [
8 ~3 c% @& H* W( u% S
[2K.6声道风景片] 时间的风景TimeScapes[YUV444p10_1080p][x264_5.1ch_flac].mkv_0025.jpg ; O% ~8 `" E7 i2 w/ S

: q" y9 l) l& j- q2 _+ Y3 z [2K.6声道风景片] 时间的风景TimeScapes[YUV444p10_1080p][x264_5.1ch_flac].mkv_0031.jpg
. P9 w' h1 g* M1 u" q% D0 t. y5 u6 S5 @5 T/ p) ?0 F
[2K.6声道风景片] 时间的风景TimeScapes[YUV444p10_1080p][x264_5.1ch_flac].mkv_0032.jpg
* D6 T# {3 K  y/ U2 Q$ P2 d8 i$ W2 X1 S' N
[2K.6声道风景片] 时间的风景TimeScapes[YUV444p10_1080p][x264_5.1ch_flac].mkv_0033.jpg
, i1 ]  ~% O2 n( Q+ i" d0 L4 F( O2 m, e7 F+ U
[2K.6声道风景片] 时间的风景TimeScapes[YUV444p10_1080p][x264_5.1ch_flac].mkv_0036.jpg
3 u! R$ ?2 l$ X4 r# d; e! O1 A; t. [: n
[2K.6声道风景片] 时间的风景TimeScapes[YUV444p10_1080p][x264_5.1ch_flac].mkv_0038.jpg
. K8 H1 D+ {5 a& Q9 O5 i
. f3 H$ k% |4 r; s! h; E. P [2K.6声道风景片] 时间的风景TimeScapes[YUV444p10_1080p][x264_5.1ch_flac].mkv_0047.jpg
" M; a  U4 t" J& h/ `8 c
    $ w3 s" m) o0 E. i9 m
    6 x8 M. n& p2 x9 Q) p  s
    《时间的风景》是备受赞誉的摄像师和导演,汤姆·劳的首部影片。影片采用慢镜头与定时拍摄的摄影技术,向我们展示了美国西南部陆地、人文以及野外令人惊叹的瑰丽景色。为拍摄本影片,劳开着他的丰田敞篷小卡车奔走于美国西南部,历时两年。   《时间的风景》的拍摄、剪辑和色彩分级均采用4K 分辨率(4096×2304像素),是世界上首部面向公众发售的4K电影。(摘自网络)
    # S( W$ z0 S6 {* Q' K

    ( C' Y; Z- q% n' K, @" j

      ) L; P7 ^) a2 t- x$ K从309G源片Cineform 4K版,内部编码为RGB36bit,采用YUV444p10格式,即亮度和色度都由片源分辨率降低到1920×1080,然后用10bit精度编码。这样做的好处不仅在于downscale质量高,更在于可以完整的保留颜色信息。(引自原压片者话)

$ v" |. h1 h( S! `9 @- J
百度网盘下载:
6 o3 p. m2 b% |- C) t  X# g
General
Unique ID                      : 245465519782701895696786325206453638148 (0xB8AAF0822E66AFCFABC3A3F0A6DAD404)
Complete name                  : [2K.6声道风景片] 时间的风景TimeScapes[YUV444p10_1080p][x264_5.1ch_flac].mkv
Format                         : Matroska
Format version                 : Version 4 / Version 2
File size                      : 4.69 GiB
Duration                       : 48 min 22 s
Overall bit rate mode          : Variable
Overall bit rate               : 13.9 Mb/s
Encoded date                   : UTC 2018-11-06 21:01:14
Writing application            : mkvmerge v9.2.0 ('Photograph') 64bit
Writing library                : libebml v1.3.3 + libmatroska v1.4.4
7 e- T  r2 k; z
Video
ID                             : 1
Format                         : AVC
Format/Info                    : Advanced Video Codec
Format profile                 : High 4:4:4 Predictive@L5
Format settings                : CABAC / 13 Ref Frames
Format settings, CABAC         : Yes
Format settings, ReFrames      : 13 frames
Codec ID                       : V_MPEG4/ISO/AVC
Duration                       : 48 min 21 s
Bit rate                       : 9 883 kb/s
Width                          : 1 920 pixels
Height                         : 1 080 pixels
Display aspect ratio           : 16:9
Frame rate mode                : Constant
Frame rate                     : 23.976 (24000/1001) FPS
Chroma subsampling             : 4:4:4
Bit depth                      : 10 bits
Scan type                      : Progressive
Bits/(Pixel*Frame)             : 0.199
Stream size                    : 3.34 GiB (71%)
Writing library                : x264 core 132 r2323+704+51 d571b1c tMod [10-bit@all X86_64]
Encoding settings              : cabac=1 / ref=13 / deblock=1:-1:-1 / analyse=0x3:0x133 / me=umh / subme=10 / psy=1 / fade_compensate=0.00 / psy_rd=1.00:0.00 / mixed_ref=1 / me_range=32 / chroma_me=1 / trellis=2 / 8x8dct=1 / cqm=0 / deadzone=21,11 / fast_pskip=0 / chroma_qp_offset=2 / threads=16 / lookahead_threads=2 / sliced_threads=0 / nr=0 / decimate=1 / interlaced=0 / bluray_compat=0 / constrained_intra=0 / fgo=0 / bframes=8 / b_pyramid=2 / b_adapt=2 / b_bias=0 / direct=3 / weightb=1 / open_gop=0 / weightp=2 / keyint=600 / keyint_min=1 / scenecut=40 / intra_refresh=0 / rc_lookahead=70 / rc=crf / mbtree=1 / crf=18.0000 / qcomp=0.60 / qpmin=0 / qpmax=81 / qpstep=5 / ip_ratio=1.40 / aq=3:0.80 / aq-sensitivity=10.00 / aq-factor=1.00:1.00:1.00 / aq2=0 / aq3=0
Language                       : English
Default                        : Yes
Forced                         : No
& o4 T7 {" T& A2 m& ~. n& v
Audio #1
ID                             : 2
Format                         : FLAC
Format/Info                    : Free Lossless Audio Codec
Codec ID                       : A_FLAC
Duration                       : 48 min 22 s
Bit rate mode                  : Variable
Bit rate                       : 682 kb/s
Channel(s)                     : 2 channels
Channel positions              : Front: L R
Sampling rate                  : 48.0 kHz
Frame rate                     : 11.719 FPS (4096 SPF)
Bit depth                      : 16 bits
Stream size                    : 236 MiB (5%)
Writing library                : libFLAC 1.3.0 (UTC 2013-05-26)
Default                        : Yes
Forced                         : No
; Q2 N( `2 V* f& G& \- h& G  |
Audio #2
ID                             : 3
Format                         : FLAC
Format/Info                    : Free Lossless Audio Codec
Codec ID                       : A_FLAC
Duration                       : 48 min 21 s
Bit rate mode                  : Variable
Bit rate                       : 3 318 kb/s
Channel(s)                     : 6 channels
Channel positions              : Front: L C R, Back: L R, LFE
Sampling rate                  : 48.0 kHz
Frame rate                     : 11.719 FPS (4096 SPF)
Bit depth                      : 24 bits
Stream size                    : 1.12 GiB (24%)
Writing library                : libFLAC 1.3.0 (UTC 2013-05-26)
Default                        : No
Forced                         : No

+ M: {. Q- ^9 l: j" }! ~, ], S: q
* \; B1 N, o1 g3 p" z% X$ O
7 Y! E* f; c8 a7 h$ I, J, m  c) o
. U" U% e8 z- W

4 x% @0 z* \. G$ s9 M+ l
9 P6 U/ g9 a( V7 S* x1 J  m9 ]$ l
9 e' `  y; q; r; m9 r1 r6 e

評分

參與人數 1名聲 +10 精幣 +10 收起 理由
samay + 10 + 10 精品文章

查看全部評分

您需要登錄後才可以回文 登錄 | 註冊

再次提醒,當您點擊發表回覆,視同您已經明白本討論區的版規,如不明白請先參見各版版規。

熱門推薦

GRANDVIEW 固定框幕開箱!!~
GRANDVIEW 固定框幕開箱!!
人生第一次開箱,還請各位前輩鞭小力點
自己的音響架自己做,全鋁合金打造,防震+散熱+隔離電 磁波,三個願望讓您一次滿足!
自己的音響架自己做,全鋁
3D 示意圖 日本 貼模板 加工中! 一共三組音
帶動4K經濟就是要靠這一味,韓國4K UHD頻道強力放送(下載-少女時代L.A演出現場)
帶動4K經濟就是要靠這一味
目前韓國已經擁有5個UHD超高清頻道,分別是:UMAX, CJ E&M
標準的體驗 質感的展現 【BENQ-W11000H引領DLP王者風範】
標準的體驗 質感的展現 【
4K帶給家用音響設備在大呎吋上新的衝擊。延燒至約2年多,其實大
Blue Aura x30 主動式電腦小喇叭
Blue Aura x30 主動式電腦
第一次開箱Blue Aura x30 主動式電腦小揚聲器 1. 外箱 2. 小喇

聯絡我們| 問題反映| 小黑屋| 手機版| Archiver|  本網站特別聘請 蔡家豪律師 為本站法律顧問

快速回覆 返回頂部 返回列表