查看: 1053|回覆: 9
收起左側

[4KUHD] [8K超清视频] 维也纳 8K卓越的印象Exceptional impressions from Vienna 8K[MP4/512M]

[複製連結]

發表於 2018-11-3 13:59:17 | 顯示全部樓層 |閱讀模式

馬上註冊,結交更多好友,享用更多功能,讓你輕鬆玩轉社區。

您需要 登錄 才可以下載或查看,沒有帳號?註冊

x
本帖最後由 刘302 於 2018-11-15 05:36 AM 編輯 9 g$ ]- S7 O2 _

+ u. o" N$ ^0 H7 k0 K' }3 ~- m [8K超清视频] 维也纳 8K卓越的印象Exceptional impressions from Vienna 8K.mp4_00000.jpg
% M* r$ v- q  \2 J; @  m" M$ @
8 g8 N" R6 H6 P/ x7 ?% F [8K超清视频] 维也纳 8K卓越的印象Exceptional impressions from Vienna 8K.mp4_00001.jpg
) k3 W" s8 p  ]7 E, c! z
) R9 \  @) P5 z9 q# r [8K超清视频] 维也纳 8K卓越的印象Exceptional impressions from Vienna 8K.mp4_00002.jpg
8 N4 }% B* c- `7 z" L. k1 ?, \7 H7 J2 l4 ^- Q/ D+ Y- u% U" d, j
[8K超清视频] 维也纳 8K卓越的印象Exceptional impressions from Vienna 8K.mp4_00002.jpg ( ~( Y# y8 i7 Q2 T& t' a
9 ]( `" V( a5 w" [4 j* e
[8K超清视频] 维也纳 8K卓越的印象Exceptional impressions from Vienna 8K.mp4_00003.jpg
! E# P: G4 t  F+ ?) I' `' T
- }+ _/ w& Y! o4 H2 U: O [8K超清视频] 维也纳 8K卓越的印象Exceptional impressions from Vienna 8K.mp4_00003.jpg
6 V) K0 M0 J. r7 J
/ s7 ]% l( d: M6 I [8K超清视频] 维也纳 8K卓越的印象Exceptional impressions from Vienna 8K.mp4_00005.jpg - ?) C5 ?. i1 W) o. B( c; U- i

' h9 T. r% H" o( }2 ~: k [8K超清视频] 维也纳 8K卓越的印象Exceptional impressions from Vienna 8K.mp4_00010.jpg
4 C7 O$ W& u. L7 \& i+ t; M  H1 p! c3 X1 ^
[8K超清视频] 维也纳 8K卓越的印象Exceptional impressions from Vienna 8K.mp4_00012.jpg ' c, Q% r" m& s4 j& l" H0 [

: Y4 p' H0 L6 B3 `8 H2 K
百度网盘下载:
提取码: c5sd

9 @1 x/ H& ]: M8 |1 _
General
Complete name                  : [8K超清视频] 维也纳 8K卓越的印象Exceptional impressions from Vienna 8K.mp4
6 y/ [! z* x* O/ \6 p5 X/ lFormat                         : MPEG-4
8 Q; {6 N; ^1 dFormat profile                 : Base Media
0 m+ a& |6 u% z: O( x) f: E$ E0 ECodec ID                       : isom (isom/iso2/avc1/mp41)4 \% C" d) t+ n( M/ g
File size                      : 512 MiB
9 I- m- N" k4 ~Duration                       : 1 min 32 s& |$ j% g4 ?' ~, L5 {/ e
Overall bit rate               : 46.4 Mb/s
! T; H* O! l* e0 v, wWriting application            : Lavf56.25.101
% O+ n( B& f. e/ R0 X% }8 R* m
. I+ g+ `) E( S& C" r4 U" hVideo
5 M" u% g- {. j0 QID                             : 1' D; S" Z' z, y/ p! Y& S1 ^
Format                         : AVC
+ V6 R- `: k  d6 P: ?) {1 o" |Format/Info                    : Advanced Video Codec/ r- S# B. i1 W4 u. `
Format profile                 : High@L5.1
9 j( [/ x2 m( N  n9 c7 DFormat settings                : 2 Ref Frames
% w0 X* Z; `- GFormat settings, CABAC         : No+ U! l7 P* `$ v
Format settings, ReFrames      : 2 frames/ i" q: J2 m) X) q- P
Codec ID                       : avc1
' C0 o- B1 L5 Q4 YCodec ID/Info                  : Advanced Video Coding! ]3 W7 ?4 D- U0 Y% O' T
Duration                       : 1 min 32 s
  D* q9 ~+ i& b# VBit rate                       : 46.3 Mb/s
) _' `: Z! P' U- DWidth                          : 7 680 pixels7 s: G! J4 t' h0 Z( H1 a
Height                         : 4 320 pixels
  Q, A0 D7 _8 a) i  `7 e4 b6 _9 \Display aspect ratio           : 16:9! P4 h2 T; E4 b0 f( h
Frame rate mode                : Constant
; X" M  x: U1 t; _7 O1 r, pFrame rate                     : 25.000 FPS
- |# q) J5 q& {  C) a( S6 ]+ KColor space                    : YUV! t) g3 W( X9 v
Chroma subsampling             : 4:2:0
9 W( {2 S" g+ y. c& L0 g0 `Bit depth                      : 8 bits
. t1 I7 f# h  U) J2 t0 F2 ^Scan type                      : Progressive* {. y2 p: V( k. A1 ^6 I) Q1 G* i3 E
Bits/(Pixel*Frame)             : 0.056  X4 d" D7 ]4 M- ]2 o
Stream size                    : 511 MiB (100%)
! E2 Y! t4 e0 RColor range                    : Limited
  Z; R8 l# y9 N. ~3 H. M+ uColor primaries                : BT.709" m5 v8 m$ {( c4 p5 ^
Transfer characteristics       : BT.7093 i8 j" \8 R' k3 R' ^+ }
Matrix coefficients            : BT.7092 G* p; P& o. M+ N% k( O

% O+ d+ ^$ j% [. Y  d- S8 L3 gAudio
( A, u" M6 I; v8 P0 w/ ?8 w3 UID                             : 2
2 v3 C6 h7 [, L% d+ |) G4 ~! A) @Format                         : AAC
) X4 h5 R+ A4 w) u* |7 g5 _Format/Info                    : Advanced Audio Codec
# E  F" g$ L& f2 A0 n, U9 C7 wFormat profile                 : LC. j& D2 D# X, a
Codec ID                       : mp4a-40-2
+ [7 C& g& m( `# |2 ?' {* yDuration                       : 1 min 32 s
, q8 Z9 J) c) X6 Y" D+ a+ {Bit rate mode                  : Constant& H2 a2 S: y! ?: `0 W" T. ?  E
Bit rate                       : 126 kb/s
; j9 F% w6 r3 s% K3 D; B4 s- TChannel(s)                     : 2 channels
4 M( v; M8 s' HChannel positions              : Front: L R
; k4 |( [/ f- O! e1 u: E3 iSampling rate                  : 44.1 kHz
0 Y0 i8 @/ g4 H  kFrame rate                     : 43.066 FPS (1024 SPF)
+ f4 G4 D9 I, J( S' o* p& qCompression mode               : Lossy
1 o2 m. A% T' I" {/ N2 b6 bStream size                    : 1.39 MiB (0%)( c; ~6 [0 R, r! K- m4 r+ F
Default                        : Yes
1 p$ i* ^& |  eAlternate group                : 1
7 Q3 E: ]' g4 a" s& g$ R, z" p3 h2 ]  _( X$ w' S9 I& O- h

評分

參與人數 1名聲 +10 精幣 +10 收起 理由
samay + 10 + 10 精品文章

查看全部評分


發表於 2018-11-3 15:54:18 | 顯示全部樓層
不得了,很精彩!
回覆 支持 反對

使用道具 檢舉


發表於 2018-11-3 18:25:11 | 顯示全部樓層
I7的基本上就是听个响,这要砸锅卖铁换设备了。
回覆 支持 反對

使用道具 檢舉


發表於 2018-11-25 11:03:39 | 顯示全部樓層
这是要换设备的节奏
回覆 支持 反對

使用道具 檢舉


發表於 2018-12-3 22:39:06 | 顯示全部樓層
感謝樓主大大# J9 ?0 g) s$ s2 Y
回覆 支持 反對

使用道具 檢舉


發表於 2019-2-11 16:05:30 | 顯示全部樓層
謝謝分享,感恩!
回覆 支持 反對

使用道具 檢舉


發表於 2019-2-15 01:41:28 | 顯示全部樓層
美麗的音樂之都,8K畫質不知道電腦能不能跑得動,感謝分享高畫質影片
回覆 支持 反對

使用道具 檢舉


發表於 2019-4-26 18:33:09 來自手機 | 顯示全部樓層
谢谢分享,下载到4电视试着播放下
回覆 支持 反對

使用道具 檢舉


發表於 2019-4-30 14:21:18 | 顯示全部樓層
8K, 真的要下來試試看,希望還有得下載,謝謝樓主
回覆 支持 反對

使用道具 檢舉


發表於 2019-5-17 15:03:28 | 顯示全部樓層
处理器要烧起来了
回覆 支持 反對

使用道具 檢舉

您需要登錄後才可以回文 登錄 | 註冊

再次提醒,當您點擊發表回覆,視同您已經明白本討論區的版規,如不明白請先參見各版版規。

熱門推薦

南台灣家庭劇院體驗講座(X970R LX500)
南台灣家庭劇院體驗講座(X
小弟的家庭劇院落成已經3年,這些日子來,器材的變動與劇院的心
小空間的進擊 新增DOLBY ATMOS
小空間的進擊 新增DOLBY A
本文章最後由 FRANKLIN0815 於 2015-3-22 18:11 編輯 趁著今
復活島石像的怒吼【家訪南崁小呆】
復活島石像的怒吼【家訪南
今天拜訪的主角大家都叫他小呆~ 他有著18歲的外表(事實上已經老
我的雅瑟升級秦朝3112安裝後心得
我的雅瑟升級秦朝3112安裝
從大學時期開始就喜歡看電影,長大後期望能有一套屬於自已的家庭
請問 有大大聽過 Creative Sound BlasterX Katana 全頻電競音箱
請問 有大大聽過 Creative
小弟 對這一組 還滿感 興趣的 可是 網路上 很少人在 討論 想問

聯絡我們| 問題反映| 小黑屋| 手機版| Archiver|  本網站特別聘請 蔡家豪律師 為本站法律顧問

快速回覆 返回頂部 返回列表