查看: 1242|回覆: 9
收起左側

[4KUHD] [8K超清视频] 维也纳 8K卓越的印象Exceptional impressions from Vienna 8K[MP4/512M]

[複製連結]

發表於 2018-11-3 13:59:17 | 顯示全部樓層 |閱讀模式

馬上註冊,結交更多好友,享用更多功能,讓你輕鬆玩轉社區。

您需要 登錄 才可以下載或查看,沒有帳號?註冊

x
本帖最後由 刘302 於 2018-11-15 05:36 AM 編輯
3 e7 U- E: ~9 r. I; F' [1 K4 s' n% n3 x9 h, f0 s
[8K超清视频] 维也纳 8K卓越的印象Exceptional impressions from Vienna 8K.mp4_00000.jpg / e: t) c1 }; L$ T* B7 @

2 {2 F: d7 X6 U; ~) G [8K超清视频] 维也纳 8K卓越的印象Exceptional impressions from Vienna 8K.mp4_00001.jpg
5 ]; A. j' U" \. e) E7 C2 B. g
. B. A3 _8 u3 d/ i [8K超清视频] 维也纳 8K卓越的印象Exceptional impressions from Vienna 8K.mp4_00002.jpg
) o5 M0 A9 H2 K. M9 B2 a
8 Y8 ^3 \6 I4 ^: ]/ e [8K超清视频] 维也纳 8K卓越的印象Exceptional impressions from Vienna 8K.mp4_00002.jpg 1 W) \9 c+ W0 X  ~
5 q; ^$ g. K% B- K3 R( Q" J
[8K超清视频] 维也纳 8K卓越的印象Exceptional impressions from Vienna 8K.mp4_00003.jpg
% d; ]; w/ ^' \* j$ K4 a- M; e$ r! e
[8K超清视频] 维也纳 8K卓越的印象Exceptional impressions from Vienna 8K.mp4_00003.jpg : s' S$ |- O1 l" p
2 p% N9 k* U( Y% U1 X
[8K超清视频] 维也纳 8K卓越的印象Exceptional impressions from Vienna 8K.mp4_00005.jpg
0 j0 b5 x3 y$ k
* T  c6 e0 l* D! Q [8K超清视频] 维也纳 8K卓越的印象Exceptional impressions from Vienna 8K.mp4_00010.jpg , J* J: d' Y3 L8 M

8 J( _9 j5 b9 U2 ]7 E9 V [8K超清视频] 维也纳 8K卓越的印象Exceptional impressions from Vienna 8K.mp4_00012.jpg 0 F2 N& s3 k$ _* n" X% |

& }+ D* r, i+ i& R& [& P( w5 H
百度网盘下载:
提取码: c5sd

1 U8 D5 v2 C6 b4 r4 a6 M3 N+ q( {
General
Complete name                  : [8K超清视频] 维也纳 8K卓越的印象Exceptional impressions from Vienna 8K.mp4
, c: |; t) e' l6 o" ^6 zFormat                         : MPEG-4
' t) }9 v, D6 H- k& `( P0 [4 n# WFormat profile                 : Base Media
$ ~$ H# P6 p3 _3 I8 k) mCodec ID                       : isom (isom/iso2/avc1/mp41)
; s/ J1 J4 J  C- cFile size                      : 512 MiB+ K# w3 ^: _/ u9 x6 q5 }, T
Duration                       : 1 min 32 s
1 Q- M* M/ O7 W7 b8 k5 X. n: mOverall bit rate               : 46.4 Mb/s
* B0 Q0 P; U0 N0 Z# E3 H# mWriting application            : Lavf56.25.101
1 g+ w3 L! A" r& q
8 B2 D* l* l5 LVideo# j  d4 n' k' ^  X
ID                             : 19 b* y  @" v& [. K% O
Format                         : AVC
/ S0 F3 I+ z; C  i: GFormat/Info                    : Advanced Video Codec
2 q/ I+ q4 |' j8 S9 ]1 bFormat profile                 : High@L5.1
: q# ?$ J& e  _$ XFormat settings                : 2 Ref Frames2 J4 {+ t* D& L4 t- O  p, a% C& w
Format settings, CABAC         : No/ I( j- k" B, ^9 v$ D8 X
Format settings, ReFrames      : 2 frames, n9 h. R! z. s- A3 E
Codec ID                       : avc1
: D* p5 q) h2 `. v; G% E7 @& ~; DCodec ID/Info                  : Advanced Video Coding
$ [& Q" r- ?5 ~Duration                       : 1 min 32 s( Z& }+ }3 U" Y' y2 T0 W( q- x
Bit rate                       : 46.3 Mb/s3 h  X  ~) d7 O& V. y
Width                          : 7 680 pixels
* h' Z" a! L+ @, M. _* SHeight                         : 4 320 pixels
& d2 [$ Q+ \5 H" l& _7 LDisplay aspect ratio           : 16:9
, m( n" O! o/ R3 G  ~& xFrame rate mode                : Constant
  W+ {7 L/ c0 FFrame rate                     : 25.000 FPS! C& B( `  ]7 f4 b3 c
Color space                    : YUV9 _4 u. T( K$ a6 `. Q, w3 T5 |
Chroma subsampling             : 4:2:0( Q2 [/ Y: Q( \4 z
Bit depth                      : 8 bits
- N, P) C/ P$ sScan type                      : Progressive7 X5 O0 Y8 A9 f& F' P
Bits/(Pixel*Frame)             : 0.0561 H7 \, {2 I' r0 V; r) r
Stream size                    : 511 MiB (100%)
" A! \5 X  y- h" cColor range                    : Limited
2 s8 `+ f: v, I" vColor primaries                : BT.709
  V( O2 c/ m8 I7 T9 B& V$ WTransfer characteristics       : BT.709$ o* j" U0 E' q! N, R* o
Matrix coefficients            : BT.7093 U0 t1 J0 u& Z/ |) U' K5 D

0 s# E1 u) e) C0 a# H& z: ~Audio
( m9 \, C$ @/ u, d. R' t. zID                             : 2
6 I! N) a$ W$ |$ a8 dFormat                         : AAC
# C, g6 R& \8 d6 q2 \1 T# JFormat/Info                    : Advanced Audio Codec$ v, z  V9 W7 ~5 N; i
Format profile                 : LC
5 P3 T$ ]8 H4 q4 f0 U+ d8 eCodec ID                       : mp4a-40-2# w0 V( ]9 H# j' w  o
Duration                       : 1 min 32 s
* i$ S+ |1 q' cBit rate mode                  : Constant
% Y8 _/ l, y" t/ m. }Bit rate                       : 126 kb/s
" n8 C& ]" z. x* UChannel(s)                     : 2 channels, N3 `% X; i. S" k+ ]9 r
Channel positions              : Front: L R7 u( s; W9 B; x  Y: r6 ^! z
Sampling rate                  : 44.1 kHz
& s! \! f0 m1 l) V! C% E% x2 {Frame rate                     : 43.066 FPS (1024 SPF)
  D: ?- r& D2 W) c3 k; l/ h: WCompression mode               : Lossy- e/ m, @0 s* b1 [3 d
Stream size                    : 1.39 MiB (0%)
; {5 N, V) I* z  {Default                        : Yes
6 T" V& Y& o* @4 z# d1 C3 t$ _2 QAlternate group                : 1
2 n: P- @6 K4 D, ?; `3 N  k* @1 h7 J8 {# \0 ?- {/ `

評分

參與人數 1名聲 +10 精幣 +10 收起 理由
samay + 10 + 10 精品文章

查看全部評分


發表於 2018-11-3 15:54:18 | 顯示全部樓層
不得了,很精彩!
回覆 支持 反對

使用道具 檢舉


發表於 2018-11-3 18:25:11 | 顯示全部樓層
I7的基本上就是听个响,这要砸锅卖铁换设备了。
回覆 支持 反對

使用道具 檢舉


發表於 2018-11-25 11:03:39 | 顯示全部樓層
这是要换设备的节奏
回覆 支持 反對

使用道具 檢舉


發表於 2018-12-3 22:39:06 | 顯示全部樓層
感謝樓主大大
8 {  O2 a3 b! A! a% w1 f/ `
回覆 支持 反對

使用道具 檢舉


發表於 2019-2-11 16:05:30 | 顯示全部樓層
謝謝分享,感恩!
回覆 支持 反對

使用道具 檢舉


發表於 2019-2-15 01:41:28 | 顯示全部樓層
美麗的音樂之都,8K畫質不知道電腦能不能跑得動,感謝分享高畫質影片
回覆 支持 反對

使用道具 檢舉


發表於 2019-4-26 18:33:09 來自手機 | 顯示全部樓層
谢谢分享,下载到4电视试着播放下
回覆 支持 反對

使用道具 檢舉


發表於 2019-4-30 14:21:18 | 顯示全部樓層
8K, 真的要下來試試看,希望還有得下載,謝謝樓主
回覆 支持 反對

使用道具 檢舉


發表於 2019-5-17 15:03:28 | 顯示全部樓層
处理器要烧起来了
回覆 支持 反對

使用道具 檢舉

您需要登錄後才可以回文 登錄 | 註冊

再次提醒,當您點擊發表回覆,視同您已經明白本討論區的版規,如不明白請先參見各版版規。

熱門推薦

老漢自己亂設計的150吋不全套劇院(電源與布幕)
老漢自己亂設計的150吋不
廢話不多說,圖多文字少,因為書念得不多,詞窮,而且文章沒有連
小試身手就可以越級打怪-秦朝3115D
小試身手就可以越級打怪-
音響其實是比較級的東西,早期剛開始接觸沒幾年的時候都會有很比
2019過年前音響更新及大掃除
2019過年前音響更新及大掃
2019過年前音響大掃除: 前言:小弟多年買家電及音響大掃除的過程
請教下 天龍功放 藍芽接手機 聽音樂 音效問題
請教下 天龍功放 藍芽接手
大家好 1,我使用的是天龍x2400功放 , 我使用藍芽 先手機的音樂
想請教版上先進家庭劇院擺設方向
想請教版上先進家庭劇院擺
最近住家老公寓因壁癌嚴重,不得不重新裝潢房間 趁房間有機會重新

聯絡我們| 問題反映| 小黑屋| 手機版| Archiver|  本網站特別聘請 蔡家豪律師 為本站法律顧問

快速回覆 返回頂部 返回列表