查看: 4921|回覆: 18
收起左側

[4KUHD] [4K高清短片]我的浪漫的城市 - 圣托里尼島[2160P/MKV/3.83GB]

[複製連結]

發表於 2016-2-26 12:50:55 | 顯示全部樓層 |閱讀模式

馬上註冊,結交更多好友,享用更多功能,讓你輕鬆玩轉社區。

您需要 登錄 才可以下載或查看,沒有帳號?註冊

x
本文章最後由 klpoij89 於 2016-5-10 19:31 編輯
6 Y. b+ N$ w  i( H2 _* ^% G9 K/ C( }
! ^: {' u& S, n+ Q( @, q0 O[4K高清短片]我的浪漫的城市 - 圣托里尼島[2160P/MKV/3.83GB]4 `0 b8 b" \( i% I
My Romantic cities - Santorini (4K 2160p UHDTV HEVC AC3 En) Lotos2007.mkv_201602.jpg My Romantic cities - Santorini (4K 2160p UHDTV HEVC AC3 En) Lotos2007.mkv_201602.jpg My Romantic cities - Santorini (4K 2160p UHDTV HEVC AC3 En) Lotos2007.mkv_201602.jpg My Romantic cities - Santorini (4K 2160p UHDTV HEVC AC3 En) Lotos2007.mkv_201602.jpg My Romantic cities - Santorini (4K 2160p UHDTV HEVC AC3 En) Lotos2007.mkv_201602.jpg My Romantic cities - Santorini (4K 2160p UHDTV HEVC AC3 En) Lotos2007.mkv_201602.jpg My Romantic cities - Santorini (4K 2160p UHDTV HEVC AC3 En) Lotos2007.mkv_201602.jpg My Romantic cities - Santorini (4K 2160p UHDTV HEVC AC3 En) Lotos2007.mkv_201602.jpg My Romantic cities - Santorini (4K 2160p UHDTV HEVC AC3 En) Lotos2007.mkv_201602.jpg My Romantic cities - Santorini (4K 2160p UHDTV HEVC AC3 En) Lotos2007.mkv_201602.jpg My Romantic cities - Santorini (4K 2160p UHDTV HEVC AC3 En) Lotos2007.mkv_201602.jpg My Romantic cities - Santorini (4K 2160p UHDTV HEVC AC3 En) Lotos2007.mkv_201602.jpg My Romantic cities - Santorini (4K 2160p UHDTV HEVC AC3 En) Lotos2007.mkv_201602.jpg My Romantic cities - Santorini (4K 2160p UHDTV HEVC AC3 En) Lotos2007.mkv_201602.jpg My Romantic cities - Santorini (4K 2160p UHDTV HEVC AC3 En) Lotos2007.mkv_201602.jpg My Romantic cities - Santorini (4K 2160p UHDTV HEVC AC3 En) Lotos2007.mkv_201602.jpg My Romantic cities - Santorini (4K 2160p UHDTV HEVC AC3 En) Lotos2007.mkv_201602.jpg My Romantic cities - Santorini (4K 2160p UHDTV HEVC AC3 En) Lotos2007.mkv_201602.jpg My Romantic cities - Santorini (4K 2160p UHDTV HEVC AC3 En) Lotos2007.mkv_201602.jpg My Romantic cities - Santorini (4K 2160p UHDTV HEVC AC3 En) Lotos2007.mkv_201602.jpg My Romantic cities - Santorini (4K 2160p UHDTV HEVC AC3 En) Lotos2007.mkv_201602.jpg My Romantic cities - Santorini (4K 2160p UHDTV HEVC AC3 En) Lotos2007.mkv_201602.jpg My Romantic cities - Santorini (4K 2160p UHDTV HEVC AC3 En) Lotos2007.mkv_201602.jpg My Romantic cities - Santorini (4K 2160p UHDTV HEVC AC3 En) Lotos2007.mkv_201602.jpg My Romantic cities - Santorini (4K 2160p UHDTV HEVC AC3 En) Lotos2007.mkv_201602.jpg My Romantic cities - Santorini (4K 2160p UHDTV HEVC AC3 En) Lotos2007.mkv_201602.jpg General
! Z: {" X/ k0 s3 ]Unique ID : 197744829476563694837989438162672343508 (0x94C444D2F041F5C3A1712C59C800D9D4)
$ i5 F  ~) n, r9 r6 @Complete name : My Romantic cities - Santorini (4K 2160p UHDTV HEVC AC3 En) Lotos2007.mkv $ p0 F" s1 l$ s# {5 ?/ H9 c9 n
Format : Matroska
' t( _/ W+ k0 bFormat version : Version 4/Version 2
4 i) m- }  ~, e6 HFile size : 3.83GiB - r3 V# e) C' }9 Y% L- M" P
Duration : 22min 15s " d+ m6 C5 [0 I/ L( ?+ u3 m+ Z
Overall bit rate : 24.7 Mbps
6 ], h" u5 ?. d! m0 P% L. y1 YEncoded date : UTC 2016-01-08 19:29:381 P9 W, s1 t5 s" u
Writing application : mkvmerge v8.2.0 ('World of Adventure') 32bit 3 T; g& F3 J; k# M( y3 }
Writing library : libebml v1.3.1 + libmatroska v1.4.2
+ B. h* a" Z6 o' m& h" X2 v) s. N5 Y( u* v8 ^% Q
Video: z# B! C, V$ G6 z* w
ID : 1
0 G6 R+ j! E0 v$ {Format : AVC
3 p/ K% W6 Q5 J  S$ WFormat/Info : Advanced Video Codec
( x6 D9 l6 ?' G4 A2 S: |9 F# oFormat profile : High@L5.1 @Main: u7 S& \" n- w8 C/ h
Codec ID : V_MPEG4/ISO/AVC # i1 H" D- R2 L2 h# c
Duration : 22min 15s
; X1 r1 t/ p3 s" W. gBit rate : 24.3 Mbps
% M8 G4 C" p- e" F7 C; O; U* [$ G) pWidth : 3840 pixels ) o+ N5 i8 K5 F5 Y. I9 b
Height : 2160 pixels
* U9 d& V$ a- M% k" M0 ~7 X2 ?5 V  jDisplay aspect ratio : 16:9
% g. P6 _3 f6 X" |+ o; j. e: {/ fFrame rate mode : Constant
; U! o3 z2 h; Z8 S3 s- a2 ]/ L% PFrame rate : 50.000 fps + a% b. {! H" i
Color space : YUV ' v- t: _, o; e# S2 |4 g: @$ `
Chroma subsampling : 4:2:0 , R! k2 u! V. n+ y# i2 E; s
Bit depth : 10 bits 2 D4 ~0 K" f5 a4 t$ |
Bits/(Pixel*Frame) : 0.0585 W: p- p1 `) j3 \
Stream size : 3.77 GiB (98%)" h, i* ^5 h) n
Writing library : x264 1.7:[Mac OS X][clang 6.1.0][64 bit] 16bpp
) _: G( u) r. J8 ZEncoding settings : wpp/ctu=64/min-cu-size=8/max-tu-size=32/tu-inter-depth=1/me=1/psy=1/ subme=2/merange=57/no-rect/no-amp/max-merge=2/temporal-mvp/no-early-skip/ rdpenalty=0/no-tskip/no-tskip-fast/strong-intra-smoot
! q# l6 P5 F1 `Default : Yes
6 q- f& r6 T: o7 ~8 A) n& `Forced : No 8 a* S6 h& d+ B  b
* ]  x, C5 B& D6 p8 ]  y
Audio #1 + `' `# t; m. [5 H( s% U. d
Format : AC-3
  w- A4 K5 p/ O* S) ]# eFormat/Info : Audio Coding 3# H" I5 Z/ g5 a
Mode extension : CM (complete main)
( s/ ^# Q- \3 C% x, IFormat settings, Endianness : Big $ O. [7 X: r: ~& U  B, k/ G$ F
Codec ID : A_AC3( h/ V: P( S, n  ~* P/ H1 X
Duration : 22min 15s4 ^3 j* r& Q1 f
Bit rate mode : Constant  8 ~0 N3 S, r8 n4 W
Bit rate : 448 Kbps  
6 d9 M% @1 G' `) v3 k) T% w/ NChannel(s) : 2 channels   Z3 `, g% @# T/ X% P; |$ u, A
Channel positions : Front: L R
) Q8 X! |8 j! o3 d! sSampling rate : 48.0 KHz
9 t8 u5 n' g7 E! x: {Frame rate : 31.250 fps (1536 spf) # m9 C6 p" c" v9 J) i2 C
Compression mode : Lossy + X. B! F% y) w) C  V+ o, l
Stream size : 71.3 MiB (2%) ; m5 _) {4 b* _
Language : English
* E6 E" A! @6 s1 s- ^Default : Yes
+ b) r8 b' o  Y# q: t: a- HForced : No

5 Y4 g& r, d2 l+ D! [* |播放器potplayer
( a. H0 m9 S. q* d. d" \3 S/ p& _6 a3 }: a7 r. ]* d
BT種子文件百度雲盤
" |8 R# j2 o" t% G/ t鏈接: http://pan.baidu.com/s/1bdz2do 密碼: pxgy; O7 ]# f" o( B8 C, B/ l
( M: S6 Y4 W+ v3 K% s

8 B; u1 e$ F: ?3 I. r1 @2 u

發表於 2016-2-26 21:30:03 | 顯示全部樓層
那个好漂亮。感谢您分享吧!
回覆 支持 反對

使用道具 檢舉


發表於 2016-2-27 04:52:48 | 顯示全部樓層
感谢楼主无私分享
回覆 支持 反對

使用道具 檢舉


發表於 2016-2-27 08:47:05 | 顯示全部樓層
3.84G。。。这下搞大了,希望我的机器能跑得起来
回覆 支持 反對

使用道具 檢舉


發表於 2016-2-27 10:15:22 | 顯示全部樓層
这个风景不错 先下载了。
回覆 支持 反對

使用道具 檢舉


發表於 2016-2-28 13:55:13 | 顯示全部樓層
為什麼不直接放百度呢?
回覆 支持 反對

使用道具 檢舉


發表於 2016-3-6 12:22:54 | 顯示全部樓層
好美好纯净 ,这就是传说中的天堂吗?
回覆 支持 反對

使用道具 檢舉


發表於 2016-3-6 18:59:07 | 顯示全部樓層
画面太美 不敢看
回覆 支持 反對

使用道具 檢舉


發表於 2016-3-8 10:58:34 | 顯示全部樓層
好美啊人間仙境不過如此謝謝分享
回覆 支持 反對

使用道具 檢舉


發表於 2016-3-8 15:02:24 | 顯示全部樓層
好漂亮的地方希臘真的是很美感謝樓主的分享!
回覆 支持 反對

使用道具 檢舉


發表於 2016-3-10 10:53:11 | 顯示全部樓層
已经下载,非常漂亮的风光片
回覆 支持 反對

使用道具 檢舉


發表於 2016-3-10 11:17:46 | 顯示全部樓層
這城市真的好美....( y( G0 d6 O( F, i3 A
感謝您的分享
回覆 支持 反對

使用道具 檢舉


發表於 2016-5-22 01:35:32 | 顯示全部樓層
感謝您的分享
回覆 支持 反對

使用道具 檢舉


發表於 2016-7-11 19:24:23 | 顯示全部樓層
谢谢分享好片
回覆 支持 反對

使用道具 檢舉


發表於 2016-8-28 21:48:38 | 顯示全部樓層
4K畫面真的很棒,感謝分享
回覆 支持 反對

使用道具 檢舉


發表於 2016-12-13 11:07:03 | 顯示全部樓層
這影片似乎有點色偏
' J/ M' x0 j7 K: H+ ]7 y, t銳利度也不像4K,可能是拍攝鏡頭不夠銳利
回覆 支持 反對

使用道具 檢舉


發表於 2019-3-4 11:05:44 | 顯示全部樓層
Thanks for sharing Santorini !
- i% y: ]) A0 j  o0 fGood day !
回覆 支持 反對

使用道具 檢舉


發表於 2019-5-17 15:04:35 | 顯示全部樓層
这海边可以啊
回覆 支持 反對

使用道具 檢舉


發表於 2019-5-20 14:03:08 | 顯示全部樓層
天堂的摸样也就这样了
回覆 支持 反對

使用道具 檢舉

您需要登錄後才可以回文 登錄 | 註冊

再次提醒,當您點擊發表回覆,視同您已經明白本討論區的版規,如不明白請先參見各版版規。

熱門推薦

JL AUDIO F113低音炮問題...
JL AUDIO F113低音炮問題.
請教一下各位.我的F113不知道為什麼會變成這樣.請問能怎麼救?
2019 Sony BRAVIA MASTER系列大展旗艦視野
2019 Sony BRAVIA MASTER
2019 Sony BRAVIA MASTER系列大展旗艦視野 8K HDR液晶電視Z9G
我的雅瑟升級秦朝3112安裝後心得
我的雅瑟升級秦朝3112安裝
從大學時期開始就喜歡看電影,長大後期望能有一套屬於自已的家庭
2019 Sony BRAVIA MASTER系列大展旗艦視野 8K HDR液晶電視Z9G 究極視聽表現感動進化OLED 電視A9G系列
2019 Sony BRAVIA MASTER
2019 Sony BRAVIA MASTER 系列Z9G 8K HDR 液晶電視 (KD-85Z9G)及
HD.Club 精研新氣象(精研總部裝修全紀錄,圖爆多)
HD.Club 精研新氣象(精研
HD.Club 精研新氣象 這個 logo前幾年就設計好的,不過都沒空處理

聯絡我們| 問題反映| 小黑屋| 手機版| Archiver|  本網站特別聘請 蔡家豪律師 為本站法律顧問

快速回覆 返回頂部 返回列表