查看: 4736|回覆: 18
收起左側

[4KUHD] [4K高清短片]我的浪漫的城市 - 圣托里尼島[2160P/MKV/3.83GB]

[複製連結]

發表於 2016-2-26 12:50:55 | 顯示全部樓層 |閱讀模式

馬上註冊,結交更多好友,享用更多功能,讓你輕鬆玩轉社區。

您需要 登錄 才可以下載或查看,沒有帳號?註冊

x
本文章最後由 klpoij89 於 2016-5-10 19:31 編輯 ! T) U: s$ L5 [8 ~
5 `+ T4 ?2 ~8 `* P  o( f+ ~
[4K高清短片]我的浪漫的城市 - 圣托里尼島[2160P/MKV/3.83GB]
3 A4 f. s2 v# u! \& k: p My Romantic cities - Santorini (4K 2160p UHDTV HEVC AC3 En) Lotos2007.mkv_201602.jpg My Romantic cities - Santorini (4K 2160p UHDTV HEVC AC3 En) Lotos2007.mkv_201602.jpg My Romantic cities - Santorini (4K 2160p UHDTV HEVC AC3 En) Lotos2007.mkv_201602.jpg My Romantic cities - Santorini (4K 2160p UHDTV HEVC AC3 En) Lotos2007.mkv_201602.jpg My Romantic cities - Santorini (4K 2160p UHDTV HEVC AC3 En) Lotos2007.mkv_201602.jpg My Romantic cities - Santorini (4K 2160p UHDTV HEVC AC3 En) Lotos2007.mkv_201602.jpg My Romantic cities - Santorini (4K 2160p UHDTV HEVC AC3 En) Lotos2007.mkv_201602.jpg My Romantic cities - Santorini (4K 2160p UHDTV HEVC AC3 En) Lotos2007.mkv_201602.jpg My Romantic cities - Santorini (4K 2160p UHDTV HEVC AC3 En) Lotos2007.mkv_201602.jpg My Romantic cities - Santorini (4K 2160p UHDTV HEVC AC3 En) Lotos2007.mkv_201602.jpg My Romantic cities - Santorini (4K 2160p UHDTV HEVC AC3 En) Lotos2007.mkv_201602.jpg My Romantic cities - Santorini (4K 2160p UHDTV HEVC AC3 En) Lotos2007.mkv_201602.jpg My Romantic cities - Santorini (4K 2160p UHDTV HEVC AC3 En) Lotos2007.mkv_201602.jpg My Romantic cities - Santorini (4K 2160p UHDTV HEVC AC3 En) Lotos2007.mkv_201602.jpg My Romantic cities - Santorini (4K 2160p UHDTV HEVC AC3 En) Lotos2007.mkv_201602.jpg My Romantic cities - Santorini (4K 2160p UHDTV HEVC AC3 En) Lotos2007.mkv_201602.jpg My Romantic cities - Santorini (4K 2160p UHDTV HEVC AC3 En) Lotos2007.mkv_201602.jpg My Romantic cities - Santorini (4K 2160p UHDTV HEVC AC3 En) Lotos2007.mkv_201602.jpg My Romantic cities - Santorini (4K 2160p UHDTV HEVC AC3 En) Lotos2007.mkv_201602.jpg My Romantic cities - Santorini (4K 2160p UHDTV HEVC AC3 En) Lotos2007.mkv_201602.jpg My Romantic cities - Santorini (4K 2160p UHDTV HEVC AC3 En) Lotos2007.mkv_201602.jpg My Romantic cities - Santorini (4K 2160p UHDTV HEVC AC3 En) Lotos2007.mkv_201602.jpg My Romantic cities - Santorini (4K 2160p UHDTV HEVC AC3 En) Lotos2007.mkv_201602.jpg My Romantic cities - Santorini (4K 2160p UHDTV HEVC AC3 En) Lotos2007.mkv_201602.jpg My Romantic cities - Santorini (4K 2160p UHDTV HEVC AC3 En) Lotos2007.mkv_201602.jpg My Romantic cities - Santorini (4K 2160p UHDTV HEVC AC3 En) Lotos2007.mkv_201602.jpg General 7 t2 A5 U0 N2 G4 c, O/ R  i/ L$ K
Unique ID : 197744829476563694837989438162672343508 (0x94C444D2F041F5C3A1712C59C800D9D4)
4 l5 G* |0 G8 e! i% V# _Complete name : My Romantic cities - Santorini (4K 2160p UHDTV HEVC AC3 En) Lotos2007.mkv ' x5 n: n. ?& B! }1 U& B2 ?) q6 a$ W
Format : Matroska
4 V$ n- j) a! A1 W' R9 y/ F" v! H' yFormat version : Version 4/Version 2 4 h% @7 _* |+ i3 ~. H+ r8 I
File size : 3.83GiB
7 v. Y. t! A0 y7 ]Duration : 22min 15s
% _% v* \  R$ Q- POverall bit rate : 24.7 Mbps 6 L3 _/ c& N% o6 e) w
Encoded date : UTC 2016-01-08 19:29:383 p$ C- _- ~6 y0 [( A, m" w: F' {! J
Writing application : mkvmerge v8.2.0 ('World of Adventure') 32bit - V% c5 O& Y" {7 }* Y
Writing library : libebml v1.3.1 + libmatroska v1.4.2 5 k4 i4 ?3 }& i2 B& [, y6 P

* u% ?7 O5 E# l/ E8 o; NVideo
! V% C9 ~) b0 b) g3 FID : 1
9 O- H6 l6 |" Y5 I0 ]& C2 TFormat : AVC * j# [4 W3 k" p& @2 X$ E2 ?7 W
Format/Info : Advanced Video Codec
1 R& j1 n+ b" E- MFormat profile : High@L5.1 @Main4 l+ O/ V7 s; s9 B* F# r8 f7 n$ l5 m
Codec ID : V_MPEG4/ISO/AVC
$ c8 x6 i: s  O( `Duration : 22min 15s) t* z+ r) o' C( V; a" j: x" K2 _
Bit rate : 24.3 Mbps9 M8 y/ B+ M/ R2 P' L0 [3 F
Width : 3840 pixels
  m. G4 v: h7 M2 M% m/ }, D7 pHeight : 2160 pixels
1 E: i* E: i/ N0 A8 lDisplay aspect ratio : 16:93 T; E* }1 g" b0 z7 J1 ?' T
Frame rate mode : Constant
$ L9 U7 v3 q$ E; ZFrame rate : 50.000 fps
" t) b, l7 _* G5 }Color space : YUV & H6 M/ t  _+ R6 v4 q) z# _7 n, x
Chroma subsampling : 4:2:0 $ o: c9 z: \- Z+ m& p; [9 _
Bit depth : 10 bits
0 i: s! V) e& i2 ?Bits/(Pixel*Frame) : 0.058
, l% M- l3 f5 y" x2 x5 hStream size : 3.77 GiB (98%)
; T8 n: R% p; ?: u1 _) k% D2 tWriting library : x264 1.7:[Mac OS X][clang 6.1.0][64 bit] 16bpp
0 |$ d% M) c3 {2 _# zEncoding settings : wpp/ctu=64/min-cu-size=8/max-tu-size=32/tu-inter-depth=1/me=1/psy=1/ subme=2/merange=57/no-rect/no-amp/max-merge=2/temporal-mvp/no-early-skip/ rdpenalty=0/no-tskip/no-tskip-fast/strong-intra-smoot
* W7 A& k: I1 @( I2 [0 v+ ~Default : Yes 5 Y9 K5 A" h( M4 F
Forced : No
, G9 h! V: c& K  I: P5 D8 l; M* j8 I" _0 _  u9 k; O
Audio #1 8 W0 H9 a* [* X
Format : AC-3
8 T6 ^7 C) e2 `! z  [Format/Info : Audio Coding 3% ]4 i$ l* o, p* ^% A8 f
Mode extension : CM (complete main)
* o5 w; A: Q/ n7 c$ E: v' P1 \Format settings, Endianness : Big   g7 w9 q; A2 y; [2 ]$ a. g
Codec ID : A_AC34 {% ~- v$ D6 T  r  D" o& }
Duration : 22min 15s! J: l: b. K% C4 M
Bit rate mode : Constant  2 l1 o' u# [2 X- B. Z
Bit rate : 448 Kbps  
# B/ r3 a4 N* m7 q  U& L  hChannel(s) : 2 channels & ?) _! _, o! g  V, b
Channel positions : Front: L R
0 w5 u0 J. v1 c: U8 |6 _6 {Sampling rate : 48.0 KHz
/ }, D' Q2 Z" l# n% d! u4 qFrame rate : 31.250 fps (1536 spf)
3 W1 r- z: K; f! M& X: XCompression mode : Lossy
- V1 g0 {4 Q" q/ @8 [Stream size : 71.3 MiB (2%)
, R+ f: h( f+ y/ \  tLanguage : English
1 @+ a4 i9 t# J+ Q$ ^7 v9 sDefault : Yes & C0 F  Z7 s" D0 g- h& g# k: n) u
Forced : No
6 L4 X0 S: d/ i2 ^. M- X+ Q, J* }
播放器potplayer
3 ?0 A* A0 f; I) m' K/ _
6 {8 W0 c6 b% G
BT種子文件百度雲盤% Z4 z. N" Z( w& P, Y
鏈接: http://pan.baidu.com/s/1bdz2do 密碼: pxgy- N, }1 A6 W: ?/ g1 E

3 y; g' H$ K3 {# F6 b9 s% |( m2 Y/ c. u. G7 }* X

發表於 2016-2-26 21:30:03 | 顯示全部樓層
那个好漂亮。感谢您分享吧!
回覆 支持 反對

使用道具 檢舉


發表於 2016-2-27 04:52:48 | 顯示全部樓層
感谢楼主无私分享
回覆 支持 反對

使用道具 檢舉


發表於 2016-2-27 08:47:05 | 顯示全部樓層
3.84G。。。这下搞大了,希望我的机器能跑得起来
回覆 支持 反對

使用道具 檢舉


發表於 2016-2-27 10:15:22 | 顯示全部樓層
这个风景不错 先下载了。
回覆 支持 反對

使用道具 檢舉


發表於 2016-2-28 13:55:13 | 顯示全部樓層
為什麼不直接放百度呢?
回覆 支持 反對

使用道具 檢舉


發表於 2016-3-6 12:22:54 | 顯示全部樓層
好美好纯净 ,这就是传说中的天堂吗?
回覆 支持 反對

使用道具 檢舉


發表於 2016-3-6 18:59:07 | 顯示全部樓層
画面太美 不敢看
回覆 支持 反對

使用道具 檢舉


發表於 2016-3-8 10:58:34 | 顯示全部樓層
好美啊人間仙境不過如此謝謝分享
回覆 支持 反對

使用道具 檢舉


發表於 2016-3-8 15:02:24 | 顯示全部樓層
好漂亮的地方希臘真的是很美感謝樓主的分享!
回覆 支持 反對

使用道具 檢舉


發表於 2016-3-10 10:53:11 | 顯示全部樓層
已经下载,非常漂亮的风光片
回覆 支持 反對

使用道具 檢舉


發表於 2016-3-10 11:17:46 | 顯示全部樓層
這城市真的好美....
8 w- n4 [: i0 Q6 V1 o6 \" |感謝您的分享
回覆 支持 反對

使用道具 檢舉


發表於 2016-5-22 01:35:32 | 顯示全部樓層
感謝您的分享
回覆 支持 反對

使用道具 檢舉


發表於 2016-7-11 19:24:23 | 顯示全部樓層
谢谢分享好片
回覆 支持 反對

使用道具 檢舉


發表於 2016-8-28 21:48:38 | 顯示全部樓層
4K畫面真的很棒,感謝分享
回覆 支持 反對

使用道具 檢舉


發表於 2016-12-13 11:07:03 | 顯示全部樓層
這影片似乎有點色偏
$ a- ~5 l0 c" j$ s, x2 B$ j銳利度也不像4K,可能是拍攝鏡頭不夠銳利
回覆 支持 反對

使用道具 檢舉


發表於 2019-3-4 11:05:44 | 顯示全部樓層
Thanks for sharing Santorini !) K2 @0 ?3 |3 F! N/ E
Good day !
回覆 支持 反對

使用道具 檢舉


發表於 2019-5-17 15:04:35 | 顯示全部樓層
这海边可以啊
回覆 支持 反對

使用道具 檢舉


發表於 2019-5-20 14:03:08 | 顯示全部樓層
天堂的摸样也就这样了
回覆 支持 反對

使用道具 檢舉

您需要登錄後才可以回文 登錄 | 註冊

再次提醒,當您點擊發表回覆,視同您已經明白本討論區的版規,如不明白請先參見各版版規。

熱門推薦

南台灣家庭劇院體驗講座(X970R LX500)
南台灣家庭劇院體驗講座(X
小弟的家庭劇院落成已經3年,這些日子來,器材的變動與劇院的心
小空間的進擊 新增DOLBY ATMOS
小空間的進擊 新增DOLBY A
本文章最後由 FRANKLIN0815 於 2015-3-22 18:11 編輯 趁著今
復活島石像的怒吼【家訪南崁小呆】
復活島石像的怒吼【家訪南
今天拜訪的主角大家都叫他小呆~ 他有著18歲的外表(事實上已經老
我的雅瑟升級秦朝3112安裝後心得
我的雅瑟升級秦朝3112安裝
從大學時期開始就喜歡看電影,長大後期望能有一套屬於自已的家庭
請問 有大大聽過 Creative Sound BlasterX Katana 全頻電競音箱
請問 有大大聽過 Creative
小弟 對這一組 還滿感 興趣的 可是 網路上 很少人在 討論 想問

聯絡我們| 問題反映| 小黑屋| 手機版| Archiver|  本網站特別聘請 蔡家豪律師 為本站法律顧問

快速回覆 返回頂部 返回列表