查看: 25504|回覆: 338
收起左側

[韓國MV] T-ara - Number 9 [繁中特效字幕] [1080p] [mp4] [373M/百度]

[複製連結]

發表於 2013-10-11 15:09:04 | 顯示全部樓層 |閱讀模式

馬上註冊,結交更多好友,享用更多功能,讓你輕鬆玩轉社區。

您需要 登錄 才可以下載或查看,沒有帳號?註冊

x
T妞穿旗袍身材好曼妙喔<3
; l( L3 h, I2 z/ L+ c. x( ^話說No.9是什麼意思阿...不懂?2 i* ^$ w7 z1 d- C8 \
I'm in the duck...in the duck...呱呱XD

, T/ c% }2 x0 M+ ]7 U/ m; Y  S& F4 v
[youtube]Kn8KKq60Koo[/youtube]
) e1 J7 p9 r3 Z$ {/ f/ H9 n0 K1 M0 O, F/ w8 ?5 e

8 Q2 f  S3 J2 d1 g0 k4 @8 b6 e                               
登錄/註冊後可看大圖

( E* n" c3 r+ w' B" o8 E! [) j

' l; L+ K+ y+ v                               
登錄/註冊後可看大圖

! @5 X) F  G6 n; ?5 S! j" K

, l" w- G- N8 A8 k                               
登錄/註冊後可看大圖
7 D, I; V: V/ X6 `6 A7 |$ a& p
! i8 O8 l- k" \- c
                               
登錄/註冊後可看大圖

( P6 `9 @+ \  U4 ?

& }0 H8 O" S3 {% }' ^  y! ^                               
登錄/註冊後可看大圖
# V+ k- \$ C8 C2 T3 ^+ @5 L  p
0 l# @" _  ]" a& B
                               
登錄/註冊後可看大圖

: W7 a4 d9 P! z8 n/ |
& g8 H& F6 o2 Q8 b7 a* ~* k
                               
登錄/註冊後可看大圖
9 m* @8 T8 p1 c2 v2 x, Z& c' ^7 W

6 ^& V( X  Q+ w! s/ Z1 {                               
登錄/註冊後可看大圖
% _( J& N" b4 z8 I& s. E3 Y. l

1 c0 j: d' ?  Z) n; |* K" e
D:\T-ara - Number 9 [繁中特效字幕] [1080p] [pureland].mp47 r- W7 u9 {7 Z1 p' ~
  General, J) I& @- L$ z/ I- k  G3 }0 _
    Complete name : D:\T-ara - Number 9 [繁中特效字幕] [1080p] [pureland].mp4
9 H% i8 X' p" |9 M' m' P    Format : MPEG-44 D8 R' r8 ]7 j: Z( x1 Y3 _8 P: W
    Format profile : Base Media. `  h( P& N, w$ X, T
    Codec ID : isom9 r! S6 o' k2 K! T: ^$ Y
    File size : 373 MiB
' |- D8 ]; p, I4 w    Duration : 3mn 53s1 z+ @4 Y9 ~4 }3 {6 `
    Overall bit rate mode : Variable
; t8 _( U, u6 i5 Q    Overall bit rate : 13.4 Mbps$ H8 s2 i: m: Q6 @
    Encoded date : UTC 2013-10-11 05:19:25
: l, V9 d5 v+ P- j    Tagged date : UTC 2013-10-11 05:19:25
5 H1 b  z) y6 M" K  Video #1
6 f1 L0 b# @! J: m    ID : 1
% Q& {3 b, ~) C# x8 N5 V4 R9 {    Format : AVC
  P- Q5 J  @& f9 i. X' W! [    Format/Info : Advanced Video Codec
; ^5 n& \$ Z6 N! C) |- Q+ d    Format profile : Main@L4.0
' o9 U* [& L6 z; d* D    Format settings, CABAC : Yes
4 B- ~- L1 o! D    Format settings, ReFrames : 2 frames0 Q9 J* `( @. _' o5 A8 z5 d& L
    Format settings, GOP : M=2, N=292 Y! ]8 k( s: j9 C* z$ v
    Codec ID : avc1
1 }+ a1 e6 J! P/ B( |8 [4 f    Codec ID/Info : Advanced Video Coding( W) i% C# m' {+ a; V" Q
    Duration : 3mn 53s
# g- h- g" {6 V  Z1 A+ x    Bit rate : 13.1 Mbps
& V2 P) T5 F6 `( S# C    Maximum bit rate : 19.7 Mbps
  L/ W6 y( b* c    Width : 1 920 pixels
( T# t6 R# q* k' Q& \7 `; |    Height : 1 080 pixels
6 D" _" \6 ~- Z# v) _" e" ]    Display aspect ratio : 16:9
/ G' T1 t0 K# v' s    Frame rate mode : Variable
; \4 _" N( ?! W9 w- k6 T0 c; ~9 R    Frame rate : 29.970 fps9 c9 F8 j. y, ^
    Minimum frame rate : 29.940 fps
$ Z; [% d$ t' @% T6 T& [/ W+ M7 P    Maximum frame rate : 29.970 fps' n, S9 E5 h; k- Q
    Color space : YUV
5 U2 E; j- c( D% G: v. Y9 R. A    Chroma subsampling : 4:2:0, Z' Q* I5 d- b
    Bit depth : 8 bits
# Z0 [; I6 ?: j& F( Y, H    Scan type : Progressive5 {8 s( w* u2 P
    Bits/(Pixel*Frame) : 0.210% `* I$ p6 g# \+ A( G% r9 \
    Stream size : 364 MiB (98%)1 e( L" X6 z* F1 u
    Language : English  ^0 a: ]- w! M, i1 W; z
    Encoded date : UTC 2013-10-11 05:17:23. m# ?$ p1 N* x: x$ @, R+ e# Y; x0 _
    Tagged date : UTC 2013-10-11 05:19:25. e0 h. {: a( ?' [4 E2 A
  Audio #2
6 a: {; C  E8 N0 j    ID : 2$ M8 q6 d) n' Z1 a1 ~; T
    Format : AAC: c1 `% P* S% Z' T8 K+ G6 `
    Format/Info : Advanced Audio Codec8 ^- f6 |/ i6 Y3 z( W! l! F2 s* O
    Format profile : LC
; V0 T7 E( ~' h% e; O  |. b    Codec ID : 40  Y5 b# @8 P; t  t( [) |* ]. G0 n2 b
    Duration : 3mn 53s
3 A! y  Y, o- @. Q! ^  y; }    Bit rate mode : Variable8 v! D" Y+ l6 ?3 q
    Bit rate : 317 Kbps
" D5 M- b& p# u& c' P( ~    Maximum bit rate : 325 Kbps
/ C5 p9 J  K( Q( r0 Y" O    Channel count : 2 channels3 }4 R% z" G, n
    Channel positions : Front: L R
! X( u4 G' z7 J' V    Sampling rate : 48.0 KHz
6 c. Y- [- n8 x7 R9 s    Compression mode : Lossy
; L  A2 L2 z# ~! G% H) D4 w    Stream size : 8.85 MiB (2%)* m! {7 P" t. H2 n7 n+ q
    Language : Korean  g4 @' m/ b. o
    Tagged date : UTC 2013-10-11 05:19:25
2 F" @& o; X1 t  O
. \( t6 ?3 B9 a- |5 P/ j+ x5 _
載點:
& |" E( s) p' b# C2 U+ c# x
遊客,如果您要查看本文隱藏內容請回覆

評分

參與人數 2名聲 +26 精幣 +21 收起 理由
hkskw + 20 + 15 精品文章
twins-jacky + 6 + 6 精品文章

查看全部評分


發表於 2013-10-11 15:16:49 | 顯示全部樓層
T-ara 這首新歌很好聽...謝謝分享
回覆 支持 反對

使用道具 檢舉


發表於 2013-10-11 15:20:21 | 顯示全部樓層
又有T-ara的新歌可以看了
: i3 Q9 }: h2 j' x! L已看過其他版本 但就是聽不懂唱啥0 p# y& j$ L+ q6 B
多謝大大分享中文字幕版 這下可好好欣賞了
* i3 E9 K" K* I$ r% g
回覆 支持 反對

使用道具 檢舉


發表於 2013-10-11 16:12:16 | 顯示全部樓層
新歌真的很好聽,MV更是經典.T-ara最近蠻活躍的~~謝謝分享
回覆 支持 反對

使用道具 檢舉


發表於 2013-10-11 16:28:54 | 顯示全部樓層
网上看到的解释:
: `: |# z+ d  y0 q   No.9是Love potion no.9 的缩写是 1966年由the searcher演唱的英文歌 ,歌词是一个落魄的汉纸去找一个女人调配名为 Love potion no.9的爱情灵药 感觉可以是将所爱之人比喻成这款爱情灵药 也有可能理解成将爱情灵药拟人化 来表现那份陷入爱情里面伤痛的模样

評分

參與人數 1名聲 +2 精幣 +2 收起 理由
pureland + 2 + 2 熱心助人^^

查看全部評分

回覆 支持 反對

使用道具 檢舉


發表於 2013-10-11 17:02:26 | 顯示全部樓層
VERY BAD SITUATION FOR TARA NOW FACING IN KOREA, THEY REALLY NEED A SONG TO BREAK IT OUT, HOPE THEY CAN DO IT!,
回覆 支持 反對

使用道具 檢舉


發表於 2013-10-11 17:23:43 | 顯示全部樓層
顶一个,谢谢分享,喜欢
回覆 支持 反對

使用道具 檢舉


發表於 2013-10-11 17:27:59 | 顯示全部樓層
t-ara終於出新歌了
- h- |4 Z; W, l( z8 o% Y5 J; n期待好久了阿 XD
回覆 支持 反對

使用道具 檢舉


發表於 2013-10-11 17:30:48 | 顯示全部樓層
T妞真的是太正了
" J* @7 r4 s5 A歡迎回歸
回覆 支持 反對

使用道具 檢舉


發表於 2013-10-11 17:33:28 | 顯示全部樓層
又是一首旋律讓人很中毒的歌!
! Y& k  W& a/ b2 ~* r, _聽久了會上癮!
回覆 支持 反對

使用道具 檢舉


發表於 2013-10-11 17:33:46 | 顯示全部樓層
T妞的MV必定收藏了呢~" k9 D# v6 J* _* Y* v
不能錯過呢~
( b+ R& _4 E& V9 s! h' u" ~謝謝樓主分享特效字幕版呢
回覆 支持 反對

使用道具 檢舉


發表於 2013-10-11 18:06:22 | 顯示全部樓層
終於有點熱鬧了..TARA這首很好聽 希望成績能好
回覆 支持 反對

使用道具 檢舉


發表於 2013-10-11 18:11:15 | 顯示全部樓層
中字版的耶!!!!4 F2 d- ~  x6 N4 X

" y) M/ N/ i. {3 s3 `- z6 s- F這首也蠻好聽的!!!0 v8 e: S& H3 K3 s8 [0 {4 i
回覆 支持 反對

使用道具 檢舉


發表於 2013-10-11 18:52:32 | 顯示全部樓層
來看中文字幕
: u7 F7 S/ o3 K( ]2 f; s7 \不然真的聽不懂唱什麼= ="
% }; @/ x' E) j* g兩首素妍都是主唱~
回覆 支持 反對

使用道具 檢舉


發表於 2013-10-11 19:15:40 | 顯示全部樓層
发展的不错嘛  出道能有2年的时间?  这次少了一个人吧
回覆 支持 反對

使用道具 檢舉


發表於 2013-10-11 19:27:44 | 顯示全部樓層
T-ARA新歌 絕對不能錯過
; z. \( ?, J. x; a. n" ]- Y' R等好久了 謝謝樓主分享
回覆 支持 反對

使用道具 檢舉


發表於 2013-10-11 19:28:14 | 顯示全部樓層
T-ARA又出新歌了!) ~- i, `, U: ?  w$ S
上次回歸已經有一段時間了
5 ]; X5 E0 A% d0 D$ x! A不知道風格是否會有變化
回覆 支持 反對

使用道具 檢舉


發表於 2013-10-11 19:28:55 | 顯示全部樓層
這首新歌蠻好聽的
$ U. u- b' p! T' e' K) x6 z' R8 ]* m' W/ u4 Z3 J
特別是孝敏的鏡頭好多喔
回覆 支持 反對

使用道具 檢舉


發表於 2013-10-11 19:33:06 | 顯示全部樓層
Master is just too fast and greaterhelp to us
( J0 B0 [& l$ u) mThanks for sharing
回覆 支持 反對

使用道具 檢舉


發表於 2013-10-11 19:33:24 | 顯示全部樓層
又有T-ara的新歌可以看了. d) F2 X* a+ ~& ]2 r8 e
已看過其他版本 但就是聽不懂唱啥這首新歌蠻好聽的等好久了 謝謝樓主分享
回覆 支持 反對

使用道具 檢舉

您需要登錄後才可以回文 登錄 | 註冊

再次提醒,當您點擊發表回覆,視同您已經明白本討論區的版規,如不明白請先參見各版版規。

熱門推薦

入手CP值超高的4K投影機 Epson EH-TW7300~
入手CP值超高的4K投影機 E
Epson EH-TW7300已入手3天,雖然不是什麼新機型,但整體表現個人
預售屋之家庭劇院規劃管線預埋與音響放置問題
預售屋之家庭劇院規劃管線
目前在規劃客廳的家庭劇院5.1.2 目前房子是預售屋 還在客變階段
標準的體驗 質感的展現 【BENQ-W11000H引領DLP王者風範】
標準的體驗 質感的展現 【
4K帶給家用音響設備在大呎吋上新的衝擊。延燒至約2年多,其實大
等了兩年的聖誕禮拜終於到手了明基LK990入手
等了兩年的聖誕禮拜終於到
等了兩年終於可以換4K投影機了
帶動4K經濟就是要靠這一味,韓國4K UHD頻道強力放送(下載-少女時代L.A演出現場)
帶動4K經濟就是要靠這一味
目前韓國已經擁有5個UHD超高清頻道,分別是:UMAX, CJ E&M

聯絡我們| 問題反映| 小黑屋| 手機版| Archiver|  本網站特別聘請 蔡家豪律師 為本站法律顧問

快速回覆 返回頂部 返回列表