查看: 26037|回覆: 339
收起左側

[韓國MV] T-ara - Number 9 [繁中特效字幕] [1080p] [mp4] [373M/百度]

[複製連結]

發表於 2013-10-11 15:09:04 | 顯示全部樓層 |閱讀模式

馬上註冊,結交更多好友,享用更多功能,讓你輕鬆玩轉社區。

您需要 登錄 才可以下載或查看,沒有帳號?註冊

x
T妞穿旗袍身材好曼妙喔<3& Y* X' u0 r' z' g
話說No.9是什麼意思阿...不懂?/ o  w: W. B& O6 D# Z, j8 w+ N6 Z
I'm in the duck...in the duck...呱呱XD

6 n8 }" Z2 ?. D" P/ ?( K/ s( H# I8 a( M. N# H
) u+ y$ K+ }5 x4 @5 a- j  V

3 a" k6 L6 G& l& F3 R

7 s  n1 ~) w+ a5 z/ a% P4 F3 T5 n                               
登錄/註冊後可看大圖

+ b! m/ `) W$ Y7 J

. u1 b3 i) f& }" f3 A" {% x; P                               
登錄/註冊後可看大圖
5 d' Y* a8 }) E! {' u$ p$ U- D

9 ~5 _7 X' v$ l: W                               
登錄/註冊後可看大圖
7 d4 C! {7 Y: h, t( x
. b- x8 J4 q+ ^7 U. q; v
                               
登錄/註冊後可看大圖

4 {! i  E: B% V; v9 x

; ]6 V8 h# E! t9 I/ \/ H                               
登錄/註冊後可看大圖
9 k7 B% l' A6 u5 F2 N

7 [: l4 Z/ i: {9 y8 [$ p                               
登錄/註冊後可看大圖

. U* A/ t7 ]- `4 l9 J0 f) g
% k4 T3 R. c# A5 T& S# F# m5 P
                               
登錄/註冊後可看大圖

9 l- x  Z& v( y& K" I& T
1 Z8 \' s; L( X
                               
登錄/註冊後可看大圖

" r( N$ x* ?9 @* }0 K" M( ^" O) `. l9 C
D:\T-ara - Number 9 [繁中特效字幕] [1080p] [pureland].mp4: z6 C5 A+ M! ^. Z1 E
  General2 {% k4 A1 j/ u9 s
    Complete name : D:\T-ara - Number 9 [繁中特效字幕] [1080p] [pureland].mp4+ C, d1 s8 H. F6 }+ S' ]# m9 P
    Format : MPEG-4
$ l5 }, x2 ], ]" {4 U4 d9 G& ?    Format profile : Base Media& j' `' b' \2 i! s: e; y' m3 y
    Codec ID : isom0 u9 {( t" W1 D5 d2 H4 g
    File size : 373 MiB
6 X- `0 h4 R+ j+ |    Duration : 3mn 53s
4 l' f/ H; C' ^% y3 E$ o8 X    Overall bit rate mode : Variable8 u) u8 @  W" k( `
    Overall bit rate : 13.4 Mbps- b; Z+ K. T& C% t5 R% V. _
    Encoded date : UTC 2013-10-11 05:19:253 E9 t2 x/ `+ B8 G" R; w
    Tagged date : UTC 2013-10-11 05:19:250 Q  \5 h8 V' H& O9 N2 D
  Video #1
, y1 `) j" b+ Y# j& R; j4 {    ID : 1
# V2 K! f8 J( k# N    Format : AVC
7 \. U" }3 V; [) _2 ~    Format/Info : Advanced Video Codec
# q& m! z) W( D2 l0 m    Format profile : Main@L4.0
& ?: `4 X; L$ u+ N) d& J9 O* S    Format settings, CABAC : Yes
" m0 n9 e( L. ^8 s3 J    Format settings, ReFrames : 2 frames
) U, B) ~; r. I. e& @    Format settings, GOP : M=2, N=297 i% O" b" e4 a3 N
    Codec ID : avc1
- k7 u. o7 {; ~    Codec ID/Info : Advanced Video Coding1 f0 ]( K. H( _* t6 E8 P
    Duration : 3mn 53s
+ B7 q+ ~- ^  q, F' {    Bit rate : 13.1 Mbps  B' V5 {. Q( @& w2 _- `
    Maximum bit rate : 19.7 Mbps# K3 u) O+ r7 h5 G
    Width : 1 920 pixels
) _5 ~5 I4 {+ w! f2 \+ j* e8 ]- X" r    Height : 1 080 pixels7 W6 P$ y6 d& \% K1 A# R
    Display aspect ratio : 16:9
& }2 \; A: Q) b0 g/ [5 Z; |# u# T    Frame rate mode : Variable
1 X+ h6 J- h5 L5 [+ F$ ^& e: h( ?7 l6 F/ z    Frame rate : 29.970 fps
4 y( N6 F# _/ q" w. I: h9 R: D& t    Minimum frame rate : 29.940 fps$ J$ C4 ?8 c% b+ r& y& \
    Maximum frame rate : 29.970 fps# o/ B  g9 B, H3 `/ `
    Color space : YUV, i$ J: F9 [1 Z2 R4 v8 ?6 ~
    Chroma subsampling : 4:2:05 p3 Y! `, h2 \) X" n' w
    Bit depth : 8 bits
* O$ \/ T! [, N- i" l0 Z    Scan type : Progressive
3 }+ q9 j& G3 h( {! [0 m: e    Bits/(Pixel*Frame) : 0.2101 e; `7 C0 M/ |8 F
    Stream size : 364 MiB (98%)
2 T4 o0 \5 Z7 U8 e) H    Language : English% u, b5 S9 ?9 E5 W
    Encoded date : UTC 2013-10-11 05:17:23* a9 ^( x/ P( f$ N9 O
    Tagged date : UTC 2013-10-11 05:19:25
) x: |" h; G  j+ ^! }8 x, u  Audio #2/ m' |* G) p, @3 ^; f& [: `
    ID : 2
7 ]& m9 ?# x  S* m    Format : AAC
/ \, e  I: t# W  j" G" ^    Format/Info : Advanced Audio Codec" G4 U" m+ b$ Z8 o. {8 K8 O! V
    Format profile : LC
1 F; K: z. n9 c& W' Z    Codec ID : 402 n- m. E5 V* m2 c2 e; m3 V" @7 h
    Duration : 3mn 53s
, {5 M7 D7 U) n# N" _    Bit rate mode : Variable0 Y" H- G* t1 ?, y- S  S
    Bit rate : 317 Kbps1 g3 e' L7 d5 n' l6 I
    Maximum bit rate : 325 Kbps
: V$ h* {% U" {9 Y+ p+ I1 E3 O6 P/ O    Channel count : 2 channels& o& [, S5 F  F8 H3 B2 o8 j- T
    Channel positions : Front: L R. U) e5 a3 N2 p4 W  U6 j0 Y
    Sampling rate : 48.0 KHz! \* R. w$ w$ S* M: T
    Compression mode : Lossy1 r. X8 H$ l4 X, n3 m/ j
    Stream size : 8.85 MiB (2%)
" I5 X$ p  C% I1 M2 k. }9 v    Language : Korean
, |. O$ p4 A# z3 {4 S% ^# t    Tagged date : UTC 2013-10-11 05:19:25
' J% Z: [; T; J- W) q+ O: ^
- l, V+ h* ?( \+ v! k9 K
載點:& I+ \. l% P% g0 ~$ v8 P; R' X
訪客,如果您要查看本文隱藏內容請回覆

評分

參與人數 2名聲 +26 精幣 +21 收起 理由
hkskw + 20 + 15 精品文章
twins-jacky + 6 + 6 精品文章

查看全部評分


發表於 2013-10-11 15:16:49 | 顯示全部樓層
T-ara 這首新歌很好聽...謝謝分享
回覆 支持 反對

使用道具 檢舉


發表於 2013-10-11 15:20:21 | 顯示全部樓層
又有T-ara的新歌可以看了" d/ d- w* Q, j7 W' b
已看過其他版本 但就是聽不懂唱啥8 S4 k- X) _4 ^/ x# n
多謝大大分享中文字幕版 這下可好好欣賞了, t3 Q* i7 ]; {6 o# C  l
回覆 支持 反對

使用道具 檢舉


發表於 2013-10-11 16:12:16 | 顯示全部樓層
新歌真的很好聽,MV更是經典.T-ara最近蠻活躍的~~謝謝分享
回覆 支持 反對

使用道具 檢舉


發表於 2013-10-11 16:28:54 | 顯示全部樓層
网上看到的解释:" c# j# B. ~5 N* N  r
   No.9是Love potion no.9 的缩写是 1966年由the searcher演唱的英文歌 ,歌词是一个落魄的汉纸去找一个女人调配名为 Love potion no.9的爱情灵药 感觉可以是将所爱之人比喻成这款爱情灵药 也有可能理解成将爱情灵药拟人化 来表现那份陷入爱情里面伤痛的模样

評分

參與人數 1名聲 +2 精幣 +2 收起 理由
pureland + 2 + 2 熱心助人^^

查看全部評分

回覆 支持 反對

使用道具 檢舉


發表於 2013-10-11 17:02:26 | 顯示全部樓層
VERY BAD SITUATION FOR TARA NOW FACING IN KOREA, THEY REALLY NEED A SONG TO BREAK IT OUT, HOPE THEY CAN DO IT!,
回覆 支持 反對

使用道具 檢舉


發表於 2013-10-11 17:23:43 | 顯示全部樓層
顶一个,谢谢分享,喜欢
回覆 支持 反對

使用道具 檢舉


發表於 2013-10-11 17:27:59 | 顯示全部樓層
t-ara終於出新歌了
8 n$ r2 f6 i. [4 m期待好久了阿 XD
回覆 支持 反對

使用道具 檢舉


發表於 2013-10-11 17:30:48 | 顯示全部樓層
T妞真的是太正了& }* B, v+ I, r3 z5 N, n# U- \5 G' L
歡迎回歸
回覆 支持 反對

使用道具 檢舉


發表於 2013-10-11 17:33:28 | 顯示全部樓層
又是一首旋律讓人很中毒的歌!
$ V4 S, u4 S3 `6 t聽久了會上癮!
回覆 支持 反對

使用道具 檢舉


發表於 2013-10-11 17:33:46 | 顯示全部樓層
T妞的MV必定收藏了呢~+ l) }2 I* I1 k8 J/ ?
不能錯過呢~) @# g4 t. d; x, |6 _
謝謝樓主分享特效字幕版呢
回覆 支持 反對

使用道具 檢舉


發表於 2013-10-11 18:06:22 | 顯示全部樓層
終於有點熱鬧了..TARA這首很好聽 希望成績能好
回覆 支持 反對

使用道具 檢舉


發表於 2013-10-11 18:11:15 | 顯示全部樓層
中字版的耶!!!!
$ B; L- w9 a. \) C
1 g% Y9 c7 t4 D5 t+ _6 v這首也蠻好聽的!!!/ N4 q3 u( m. q9 {' |( P' T& M
回覆 支持 反對

使用道具 檢舉


發表於 2013-10-11 18:52:32 | 顯示全部樓層
來看中文字幕
; r8 j! `* B+ I5 H. k" M" A6 C不然真的聽不懂唱什麼= =", y) k; K' e2 P3 @( _' K$ P
兩首素妍都是主唱~
回覆 支持 反對

使用道具 檢舉


發表於 2013-10-11 19:15:40 | 顯示全部樓層
发展的不错嘛  出道能有2年的时间?  这次少了一个人吧
回覆 支持 反對

使用道具 檢舉


發表於 2013-10-11 19:27:44 | 顯示全部樓層
T-ARA新歌 絕對不能錯過 8 _: A- z- y, C" `
等好久了 謝謝樓主分享
回覆 支持 反對

使用道具 檢舉


發表於 2013-10-11 19:28:14 | 顯示全部樓層
T-ARA又出新歌了!& J# }+ n$ s* j- |9 ~2 K; P
上次回歸已經有一段時間了# `2 `; u) V  l
不知道風格是否會有變化
回覆 支持 反對

使用道具 檢舉


發表於 2013-10-11 19:28:55 | 顯示全部樓層
這首新歌蠻好聽的2 g# Y7 p, d- `7 Z
5 i" U3 Z* ]0 v
特別是孝敏的鏡頭好多喔
回覆 支持 反對

使用道具 檢舉


發表於 2013-10-11 19:33:06 | 顯示全部樓層
Master is just too fast and greaterhelp to us1 |* R9 K; d3 n1 z6 q- P1 ?' J2 i
Thanks for sharing
回覆 支持 反對

使用道具 檢舉


發表於 2013-10-11 19:33:24 | 顯示全部樓層
又有T-ara的新歌可以看了
7 Z; b0 r  L6 N4 Z- S已看過其他版本 但就是聽不懂唱啥這首新歌蠻好聽的等好久了 謝謝樓主分享
回覆 支持 反對

使用道具 檢舉

您需要登錄後才可以回文 登錄 | 註冊

再次提醒,當您點擊發表回覆,視同您已經明白本討論區的版規,如不明白請先參見各版版規。

熱門推薦

FIBBR助力HDMI協會推動HDMI 2.1標準普及
FIBBR助力HDMI協會推動HDM
近日,致力推動HDMI標準、規範和認證的國際組織HDMI協會在下屬社
BenQ W2700 設定分享
BenQ W2700 設定分享
BenQ W2700 設定分享 在此分享一下小編的設定 所有測量採
老漢自己亂設計的150吋不全套劇院(電源與布幕)
老漢自己亂設計的150吋不
廢話不多說,圖多文字少,因為書念得不多,詞窮,而且文章沒有連
JmGo堅果S3 4K智能激光電視(超短焦雷射投影機),會是超短焦投影機邁入4K普及的第一槍嗎?!
JmGo堅果S3 4K智能激光電
本帖最後由 風間 於 2019-1-23 11:21 PM 編輯 『前言』 其實
小空間的進擊 新增DOLBY ATMOS
小空間的進擊 新增DOLBY A
本文章最後由 FRANKLIN0815 於 2015-3-22 18:11 編輯 趁著今

聯絡我們| 問題反映| 小黑屋| 手機版| Archiver|  本網站特別聘請 蔡家豪律師 為本站法律顧問

快速回覆 返回頂部 返回列表