查看: 26379|回覆: 342
收起左側

[韓國MV] T-ara - Number 9 [繁中特效字幕] [1080p] [mp4] [373M/百度]

[複製連結]

發表於 2013-10-11 15:09:04 | 顯示全部樓層 |閱讀模式

馬上註冊,結交更多好友,享用更多功能,讓你輕鬆玩轉社區。

您需要 登錄 才可以下載或查看,沒有帳號?註冊

x
T妞穿旗袍身材好曼妙喔<39 ~/ l" ^9 x+ o. |, J0 d
話說No.9是什麼意思阿...不懂?# [1 U2 u, o/ S  w) X# _
I'm in the duck...in the duck...呱呱XD
" v5 ]6 e, n0 Y$ n6 e" Q- u
( N8 h' S; G& v

4 A0 |' N7 z0 T5 m9 |
) r5 W6 ?* U' z* T, _

" @* `; D9 K8 P5 g                               
登錄/註冊後可看大圖

9 V9 S4 q! I% s

, L4 o, l1 g1 E% r                               
登錄/註冊後可看大圖
5 R9 _, o" G' [; I; ]

4 k0 _6 z# T9 W                               
登錄/註冊後可看大圖
) @  M+ z: K5 _1 O3 h4 _

) ?# D/ a& y: h, u' {, T, ?                               
登錄/註冊後可看大圖

/ q0 `7 B% f" T- L- i: p- V, y0 \
; z/ ^! ]8 n/ N0 N% K
                               
登錄/註冊後可看大圖
- o5 z4 Q; I, T7 _4 p" c

( I. ~4 ~& E, n, d/ I                               
登錄/註冊後可看大圖

2 c; a- i3 N7 }" m- C# Y+ m! i
' D$ s/ r! F# N
                               
登錄/註冊後可看大圖
! J$ W. t- k. Z; {( s) y- K' c

! g* [! \* u1 E                               
登錄/註冊後可看大圖
9 G" i7 t/ ?: x

; q( x$ R. e! v- V8 T# {
D:\T-ara - Number 9 [繁中特效字幕] [1080p] [pureland].mp43 p/ k: j( A+ _9 B" o3 ^; |
  General
2 O( r, A7 c, k    Complete name : D:\T-ara - Number 9 [繁中特效字幕] [1080p] [pureland].mp4* |$ J/ d5 w& l9 f8 f
    Format : MPEG-4% U7 Q! T  e2 u' r8 Q
    Format profile : Base Media+ S, k7 e4 |: w* d3 y5 b
    Codec ID : isom' J' h- ?4 S, x) Q$ z3 W# e! [4 [
    File size : 373 MiB7 F! p2 z' e" ]2 E( U7 a' p
    Duration : 3mn 53s
8 l4 z% t  b5 O; j0 h    Overall bit rate mode : Variable
7 g  V1 j% _1 t2 H    Overall bit rate : 13.4 Mbps+ J. \  t7 ~) _+ v  u
    Encoded date : UTC 2013-10-11 05:19:25
; F' K6 R9 p5 g    Tagged date : UTC 2013-10-11 05:19:25
" k6 [/ g8 y& x& G2 S  ~2 v* k( Q  Video #1) Q  n9 {  [3 S7 \
    ID : 1
' V, I1 B) @& W; U, Y3 c/ K; v# r$ S    Format : AVC/ G& t- ]0 e. A7 t$ M5 ?& q
    Format/Info : Advanced Video Codec
; t+ S$ \( v+ j, u2 P5 z3 a8 U' X9 M    Format profile : Main@L4.05 t' h+ q1 ]& \0 H8 Y! ~
    Format settings, CABAC : Yes# Z+ P0 {- y; N; i* l$ a' C
    Format settings, ReFrames : 2 frames  q( S/ F3 w6 [- y& ?" j
    Format settings, GOP : M=2, N=29) s8 Y! v) K( w2 j6 C, z
    Codec ID : avc1
+ W# |0 T+ ~+ R' Q5 i- P0 J+ s    Codec ID/Info : Advanced Video Coding8 l& ~0 c- L0 h7 V" O; y
    Duration : 3mn 53s6 C" U0 n3 `& j" X* h& f: E% O
    Bit rate : 13.1 Mbps
: v( N$ K' q: ^( j+ ]' E    Maximum bit rate : 19.7 Mbps9 Y  z: ?0 S% M- l
    Width : 1 920 pixels/ j8 A0 k" x. ^- a" Q) C: Z
    Height : 1 080 pixels# ?6 w% E$ c- H0 r# d* Y
    Display aspect ratio : 16:90 j5 M# i4 o, z
    Frame rate mode : Variable. f! Y" H( ]8 W0 u# S* u. i: b4 S
    Frame rate : 29.970 fps; q9 D# O- }; `4 q% ~
    Minimum frame rate : 29.940 fps5 H/ B, k' w4 g$ Y% Z2 C8 j' K
    Maximum frame rate : 29.970 fps
0 O7 N' o; A8 m" B- ]    Color space : YUV: Q4 c  ?, G" J/ _% i) H! f; e3 Y
    Chroma subsampling : 4:2:04 U7 H& t, v) G, ~
    Bit depth : 8 bits9 ^$ L, s: `+ n) E
    Scan type : Progressive
; c$ a/ F# a2 W, k  ]" f- Y& V    Bits/(Pixel*Frame) : 0.210
' t, _- a9 Y2 y+ \5 v    Stream size : 364 MiB (98%)
! k/ D8 g  `8 m# p2 o* g* o    Language : English& i1 ?( u7 I4 V* T4 d1 P0 ?3 M3 Q
    Encoded date : UTC 2013-10-11 05:17:23
0 |* w. K; D9 N$ Y    Tagged date : UTC 2013-10-11 05:19:252 v. K9 m1 B8 |0 i
  Audio #2
  v4 m& x8 F! C2 b( R    ID : 24 J8 p. n1 j) Q1 r3 X3 E6 Q
    Format : AAC
6 P8 C2 A! [5 ^2 F/ t" e7 `. t    Format/Info : Advanced Audio Codec
: l7 T$ _" G7 u1 L$ b    Format profile : LC  `/ m' B9 V7 Y) {& {$ a
    Codec ID : 40* B  H: r! L, G
    Duration : 3mn 53s
, o3 J- \% {3 M8 p9 \8 K8 ?    Bit rate mode : Variable
% m4 W3 @. o6 b) x    Bit rate : 317 Kbps) V7 K/ R& B, ]4 n7 Q2 f
    Maximum bit rate : 325 Kbps
- S+ h8 `$ T" a" L5 _! x$ o4 W    Channel count : 2 channels9 b+ n) l7 Q$ p4 {% ?+ C# P6 y. D
    Channel positions : Front: L R
# d; V* [1 L3 T, s  ?! x    Sampling rate : 48.0 KHz
* p( |$ F( G( [- u/ p$ Z( y    Compression mode : Lossy; @3 z$ K) ~9 f1 j/ h
    Stream size : 8.85 MiB (2%): l8 @' T+ K; n) N  h" v
    Language : Korean
# v8 F0 J, V8 E    Tagged date : UTC 2013-10-11 05:19:25

) E- @) c) D1 b
3 ^. s. ^/ Q/ `( M" e. G. q載點:$ E& a8 ^6 F) ^
訪客,如果您要查看本文隱藏內容請回覆

評分

參與人數 2名聲 +26 精幣 +21 收起 理由
hkskw + 20 + 15 精品文章
twins-jacky + 6 + 6 精品文章

查看全部評分


發表於 2013-10-11 15:16:49 | 顯示全部樓層
T-ara 這首新歌很好聽...謝謝分享
回覆 支持 反對

使用道具 檢舉


發表於 2013-10-11 15:20:21 | 顯示全部樓層
又有T-ara的新歌可以看了
/ @. a% S! b. f. h: H* O# M已看過其他版本 但就是聽不懂唱啥2 W: T8 A6 H* ]4 q4 S, s
多謝大大分享中文字幕版 這下可好好欣賞了
4 X/ Y% _5 e9 g- a8 c! t' q- Z- R8 B- j
回覆 支持 反對

使用道具 檢舉


發表於 2013-10-11 16:12:16 | 顯示全部樓層
新歌真的很好聽,MV更是經典.T-ara最近蠻活躍的~~謝謝分享
回覆 支持 反對

使用道具 檢舉


發表於 2013-10-11 16:28:54 | 顯示全部樓層
网上看到的解释:
3 @" P- V- h- ^* M   No.9是Love potion no.9 的缩写是 1966年由the searcher演唱的英文歌 ,歌词是一个落魄的汉纸去找一个女人调配名为 Love potion no.9的爱情灵药 感觉可以是将所爱之人比喻成这款爱情灵药 也有可能理解成将爱情灵药拟人化 来表现那份陷入爱情里面伤痛的模样

評分

參與人數 1名聲 +2 精幣 +2 收起 理由
pureland + 2 + 2 熱心助人^^

查看全部評分

回覆 支持 反對

使用道具 檢舉


發表於 2013-10-11 17:02:26 | 顯示全部樓層
VERY BAD SITUATION FOR TARA NOW FACING IN KOREA, THEY REALLY NEED A SONG TO BREAK IT OUT, HOPE THEY CAN DO IT!,
回覆 支持 反對

使用道具 檢舉


發表於 2013-10-11 17:23:43 | 顯示全部樓層
顶一个,谢谢分享,喜欢
回覆 支持 反對

使用道具 檢舉


發表於 2013-10-11 17:27:59 | 顯示全部樓層
t-ara終於出新歌了) O5 t; Q) u9 Y: n5 u( A. M* C
期待好久了阿 XD
回覆 支持 反對

使用道具 檢舉


發表於 2013-10-11 17:30:48 | 顯示全部樓層
T妞真的是太正了( {0 Z. S9 J( O$ e4 i
歡迎回歸
回覆 支持 反對

使用道具 檢舉


發表於 2013-10-11 17:33:28 | 顯示全部樓層
又是一首旋律讓人很中毒的歌!$ [2 n6 M/ l1 n, O' H. O
聽久了會上癮!
回覆 支持 反對

使用道具 檢舉


發表於 2013-10-11 17:33:46 | 顯示全部樓層
T妞的MV必定收藏了呢~
* ]" U* e4 ?5 W4 k, I' @不能錯過呢~
) i& z- L" i5 }9 y# E" Y4 O謝謝樓主分享特效字幕版呢
回覆 支持 反對

使用道具 檢舉


發表於 2013-10-11 18:06:22 | 顯示全部樓層
終於有點熱鬧了..TARA這首很好聽 希望成績能好
回覆 支持 反對

使用道具 檢舉


發表於 2013-10-11 18:11:15 | 顯示全部樓層
中字版的耶!!!!8 l+ h' l' Q/ ]- V1 \

; v( o) s7 p0 a: }7 S' m) G% \這首也蠻好聽的!!!
9 Q& N! c! T5 L! `4 `8 l( A# h
回覆 支持 反對

使用道具 檢舉


發表於 2013-10-11 18:52:32 | 顯示全部樓層
來看中文字幕
: p0 O; l  X  u! j+ ?" H; z不然真的聽不懂唱什麼= ="
- a# W8 ?4 {" P. E. J2 u+ x) Q3 w* r兩首素妍都是主唱~
回覆 支持 反對

使用道具 檢舉


發表於 2013-10-11 19:15:40 | 顯示全部樓層
发展的不错嘛  出道能有2年的时间?  这次少了一个人吧
回覆 支持 反對

使用道具 檢舉


發表於 2013-10-11 19:27:44 | 顯示全部樓層
T-ARA新歌 絕對不能錯過 + t: m, c3 F* D
等好久了 謝謝樓主分享
回覆 支持 反對

使用道具 檢舉


發表於 2013-10-11 19:28:14 | 顯示全部樓層
T-ARA又出新歌了!9 w- ]( N: w# i
上次回歸已經有一段時間了( N, T  K8 w4 m$ C$ l
不知道風格是否會有變化
回覆 支持 反對

使用道具 檢舉


發表於 2013-10-11 19:28:55 | 顯示全部樓層
這首新歌蠻好聽的+ }+ v+ @. g- Y% `" o3 F

; n) i+ E0 ?: Q1 X$ u/ g% U特別是孝敏的鏡頭好多喔
回覆 支持 反對

使用道具 檢舉


發表於 2013-10-11 19:33:06 | 顯示全部樓層
Master is just too fast and greaterhelp to us
. q; A) M. {2 O6 T7 tThanks for sharing
回覆 支持 反對

使用道具 檢舉


發表於 2013-10-11 19:33:24 | 顯示全部樓層
又有T-ara的新歌可以看了
. ?& P$ t/ \$ D已看過其他版本 但就是聽不懂唱啥這首新歌蠻好聽的等好久了 謝謝樓主分享
回覆 支持 反對

使用道具 檢舉

您需要登錄後才可以回文 登錄 | 註冊

再次提醒,當您點擊發表回覆,視同您已經明白本討論區的版規,如不明白請先參見各版版規。

熱門推薦

小空間的進擊 新增DOLBY ATMOS
小空間的進擊 新增DOLBY A
本文章最後由 FRANKLIN0815 於 2015-3-22 18:11 編輯 趁著今
JL AUDIO F113低音炮問題...
JL AUDIO F113低音炮問題.
請教一下各位.我的F113不知道為什麼會變成這樣.請問能怎麼救?
我的雅瑟升級秦朝3112安裝後心得
我的雅瑟升級秦朝3112安裝
從大學時期開始就喜歡看電影,長大後期望能有一套屬於自已的家庭
南台灣家庭劇院體驗講座(X970R LX500)
南台灣家庭劇院體驗講座(X
小弟的家庭劇院落成已經3年,這些日子來,器材的變動與劇院的心
老漢自己亂設計的150吋不全套劇院(電源與布幕)
老漢自己亂設計的150吋不
廢話不多說,圖多文字少,因為書念得不多,詞窮,而且文章沒有連

聯絡我們| 問題反映| 小黑屋| 手機版| Archiver|  本網站特別聘請 蔡家豪律師 為本站法律顧問

快速回覆 返回頂部 返回列表