查看: 758|回覆: 2
收起左側

[韓國TV] 110910 Anibox GSL Final - Apink cut

[複製連結]

發表於 2011-9-13 18:34:47 | 顯示全部樓層 |閱讀模式

馬上註冊,結交更多好友,享用更多功能,讓你輕鬆玩轉社區。

您需要 登錄 才可以下載或查看,沒有帳號?註冊

x
  • I Don't Know
  • It Girl
+ S+ _8 q4 N+ `1 h
abbr_4d2ef9f5945dd34d8858c6038fcfd45e.jpg 7 N8 W9 ~# `$ P% i
General #0
2 Y# l% @0 t; W$ v# n- |( Y    ID : 0 (0x0)
, f& j) c! l8 Q/ B    Format : MPEG-TS
! z9 j( Z! N9 X    File size : 1.29 GiB2 U+ \" h" v' o0 e8 O
    Duration : 8mn 58s
9 e% w: M' ~% Y1 T$ C, X/ j+ S    Overall bit rate : 20.7 Mbps
0 X' ~. G& T$ y- W. O- n  Video #1001& @" p2 k! M' S. ~, `
    ID : 1001 (0x3E9)
2 \5 I8 ^' T" I: a7 K1 z$ r) Q. |    Menu ID : 1 (0x1)) P# x' ]3 R2 w# V4 q* |
    Format : MPEG Video, G4 R$ @; q8 P0 e
    Format version : Version 2' e. t" N8 E, F6 C& M+ Z! m8 U* j
    Format profile : Main@High7 u7 A: _" y7 l3 |$ v
    Format settings, BVOP : Yes
8 h) ?3 k% [: `% T    Format settings, Matrix : Default* k2 Q% D  ?: w' }
    Format settings, GOP : M=3, N=129 o% u( i! e1 V! _, ?% `2 n0 a2 x
    Codec ID : 20 }4 o* v. `* i+ R
    Duration : 8mn 57s8 k; T/ c8 S+ c' u
    Bit rate mode : Variable' D, C4 J+ K1 L& m1 x
    Bit rate : 20.0 Mbps: J/ |+ J6 }( H, W+ W
    Width : 1 920 pixels
8 c$ j. ?9 n3 }" G    Height : 1 080 pixels
6 t* W. u( Q2 d' b    Display aspect ratio : 16:9
9 d& `) b7 r& J, h& d+ Y' b0 }    Frame rate : 29.970 fps
& ^( q6 B9 g. e' E( G& t) r1 _    Color space : YUV
/ H5 B6 Z' j8 O8 z; _    Chroma subsampling : 4:2:01 ^) D0 h) z+ d8 m+ }" Z+ l: u
    Bit depth : 8 bits( G8 X# A* ~0 g+ S5 r
    Scan type : Interlaced
* @* V5 ]+ U& R$ ?0 L# O; A    Scan order : Bottom Field First
. O5 f1 j3 R* }  `1 e$ w0 d    Compression mode : Lossy* O3 ?! P* I& P5 E/ M( m- h
    Bits/(Pixel*Frame) : 0.322
! U* _! d2 ^& b- q    Stream size : 1.22 GiB (94%)
) A! k; T. u; e2 }$ o) A  Audio #1002: p4 R; S& Q+ m# r3 v
    ID : 1002 (0x3EA)
1 p3 A- B  k7 l3 G    Menu ID : 1 (0x1), d( P# d5 p" @1 c+ b3 H/ ?
    Format : MPEG Audio% U( y9 k8 T9 R' ]8 @; L
    Format version : Version 1
6 R( h# y9 T" E  o: G    Format profile : Layer 2- k) O" R; l! F0 p2 K
    Codec ID : 3
( c  c8 ^3 _. O( u8 Z" `    Duration : 8mn 58s
5 h. q1 {) U6 |6 a( M1 L7 A, c    Bit rate mode : Constant4 _9 F5 h: D$ E8 s, |/ i% h
    Bit rate : 128 Kbps
( Q9 a8 x0 q2 U4 N# {    Channel(s) : 2 channels; N+ ]8 j5 [4 l4 l6 e% \/ Q
    Sampling rate : 48.0 KHz; @: k% g  q4 @3 R/ L: t
    Compression mode : Lossy
3 q$ r* i" M2 V) L    Delay relative to video : -505ms, E5 H$ |* D: S
    Stream size : 8.21 MiB (1%)

20110910.Anibox.GSLAug.Final.에이핑크CUT.Component.1080i.GuylianSS.tp.torrent

13.1 KB, 閱讀權限: 11, 下載次數: 53

評分

參與人數 1名聲 +6 精幣 +6 收起 理由
qoo555 + 6 + 6 精品文章

查看全部評分


發表於 2011-9-13 19:33:35 | 顯示全部樓層
娜恩的格子裝好可愛呢" {6 d0 I: _: r( i$ s2 |
看過飯拍的$ m9 j* Y. L2 k: Z6 G2 k* x. J% ?
台下應援聲不斷
回覆 支持 反對

使用道具 檢舉


發表於 2019-9-10 21:44:54 | 顯示全部樓層
怎样可以下载这个附件呢?6 Y' o# k( {6 A
回覆 支持 反對

使用道具 檢舉

您需要登錄後才可以回文 登錄 | 註冊

再次提醒,當您點擊發表回覆,視同您已經明白本討論區的版規,如不明白請先參見各版版規。

熱門推薦

FIBBR Ultra Pro2眾測:21GB的光纖HDMI插入OLED平板電視真實屏攝
FIBBR Ultra Pro2眾測:21
沒有十全十美的尤物,也沒有一無是處的劣品。對於任何一個新鮮的
帶動4K經濟就是要靠這一味,韓國4K UHD頻道強力放送(下載-少女時代L.A演出現場)
帶動4K經濟就是要靠這一味
目前韓國已經擁有5個UHD超高清頻道,分別是:UMAX, CJ E&M
老漢自己亂設計的150吋不全套劇院(電源與布幕)
老漢自己亂設計的150吋不
廢話不多說,圖多文字少,因為書念得不多,詞窮,而且文章沒有連
小試身手就可以越級打怪-秦朝3115D
小試身手就可以越級打怪-
音響其實是比較級的東西,早期剛開始接觸沒幾年的時候都會有很比
2019過年前音響更新及大掃除
2019過年前音響更新及大掃
2019過年前音響大掃除: 前言:小弟多年買家電及音響大掃除的過程

聯絡我們| 問題反映| 小黑屋| 手機版| Archiver|  本網站特別聘請 蔡家豪律師 為本站法律顧問

快速回覆 返回頂部 返回列表