查看: 808|回覆: 2
收起左側

[韓國TV] 110910 Anibox GSL Final - Apink cut

[複製連結]

發表於 2011-9-13 18:34:47 | 顯示全部樓層 |閱讀模式

馬上註冊,結交更多好友,享用更多功能,讓你輕鬆玩轉社區。

您需要 登錄 才可以下載或查看,沒有帳號?註冊

x
  • I Don't Know
  • It Girl

: r0 o3 n  m) Z8 M( K abbr_4d2ef9f5945dd34d8858c6038fcfd45e.jpg ! O* {/ o3 g- i) ?- x
General #0
3 l0 ~% ]4 [$ K, w) k& L0 Q- A    ID : 0 (0x0)
- w" e* S( G3 ?$ j, b1 M2 w    Format : MPEG-TS
, U4 V; v3 f0 a. N5 h    File size : 1.29 GiB
  R( D- `4 @) {    Duration : 8mn 58s
' l3 B  w% S6 g1 A/ `- r+ k    Overall bit rate : 20.7 Mbps
( ^. J) |# r' X  Video #10012 C* e/ c7 ~) u
    ID : 1001 (0x3E9)' @$ X. X3 E4 {% k$ @. o' U
    Menu ID : 1 (0x1)  p9 D0 i7 T) {3 H5 m
    Format : MPEG Video
/ Z, }( s* I/ [- X# G, V: Q    Format version : Version 2
7 L0 F; D# Y3 W' N+ Q6 f  H2 c    Format profile : Main@High
8 n. u  Z8 T% x+ ]# }    Format settings, BVOP : Yes
3 d7 m3 g0 f% C5 _" Q    Format settings, Matrix : Default& W7 p/ p5 P4 G7 Y' l2 ~1 G! l
    Format settings, GOP : M=3, N=12, r) \* n1 O9 j: P- B, W& I" k; R4 O
    Codec ID : 2  Y( W9 h) \+ b& E3 B5 Z# L& j+ M
    Duration : 8mn 57s. C& @2 m# ~( Q* }5 \
    Bit rate mode : Variable
- S! b( O+ g( x; K/ k2 ]/ y' p0 T    Bit rate : 20.0 Mbps1 R% l  Q5 {2 O. W
    Width : 1 920 pixels
" H$ X2 h8 o: J8 n! X    Height : 1 080 pixels; j  M. [. n" A% B5 u. x: I
    Display aspect ratio : 16:94 \/ c* ^& }2 p9 @9 u. x! i' Q
    Frame rate : 29.970 fps
$ h; U! q8 [# A" D2 N    Color space : YUV* c6 u% `; l. e8 v4 |
    Chroma subsampling : 4:2:0
% R  ?7 C& N" g+ U3 K" u    Bit depth : 8 bits# L: e# v. ^1 d' d8 x# u" N; N+ A
    Scan type : Interlaced
0 d/ O; i  x* T; r0 B7 [( [/ Y    Scan order : Bottom Field First4 O/ M+ t+ l2 J! a7 o" @9 A
    Compression mode : Lossy6 F- W# Y) B% y- V$ n6 y4 W
    Bits/(Pixel*Frame) : 0.3225 }+ E$ u+ @# Y' `' y' A
    Stream size : 1.22 GiB (94%)
4 z/ s+ e* x* k6 h  T% B( Z8 T  Audio #1002! j4 g! o0 Z0 G, }& e3 }0 h- I% L
    ID : 1002 (0x3EA)0 x0 R! c* r$ f6 R9 |# T
    Menu ID : 1 (0x1)1 t4 ]+ ~- m" b  p; W
    Format : MPEG Audio
) ^- i0 w( L% A& {  u- B" o9 b    Format version : Version 1
' d- J" q( Q9 R3 V: N0 i    Format profile : Layer 2
4 U& c; ?: n3 {- o8 }' C    Codec ID : 3
' Y3 E8 i9 r' N7 B( Z    Duration : 8mn 58s
1 v" P/ c. G% y    Bit rate mode : Constant
0 t, x+ }; ~7 ~3 u* M7 M    Bit rate : 128 Kbps7 z- R' T5 c3 u. |6 B# P$ e# q
    Channel(s) : 2 channels
6 f; q3 ^+ [) u" c9 a, P5 N# p# b    Sampling rate : 48.0 KHz/ t# o$ ?0 S; W5 Z
    Compression mode : Lossy5 a" i+ F9 e3 C: b  q8 h9 p
    Delay relative to video : -505ms" q: c% b2 T; \* L0 y3 n
    Stream size : 8.21 MiB (1%)

20110910.Anibox.GSLAug.Final.에이핑크CUT.Component.1080i.GuylianSS.tp.torrent

13.1 KB, 閱讀權限: 11, 下載次數: 53

評分

參與人數 1名聲 +6 精幣 +6 收起 理由
qoo555 + 6 + 6 精品文章

查看全部評分


發表於 2011-9-13 19:33:35 | 顯示全部樓層
娜恩的格子裝好可愛呢3 Q7 o- B' E, v- ?
看過飯拍的% i0 j% e$ ]( C) t* ~
台下應援聲不斷
回覆 支持 反對

使用道具 檢舉


發表於 2019-9-10 21:44:54 | 顯示全部樓層
怎样可以下载这个附件呢?
/ u  g3 h2 \! [& x& }% ]
回覆 支持 反對

使用道具 檢舉

您需要登錄後才可以回文 登錄 | 註冊

再次提醒,當您點擊發表回覆,視同您已經明白本討論區的版規,如不明白請先參見各版版規。

熱門推薦

NHK指定台達8K投影技術轉播2020東奧 臨場感破表
NHK指定台達8K投影技術轉
台達8K投影技術獨步全球,吸引日本東京知名森美術館指定使用在藝
奇美推國產市售最大 120吋液晶電視!
奇美推國產市售最大 120吋
奇美家電繼全台首發98吋後,再度展示其優異的技術力,推出國產最
Huawei 華為計劃在2019年內推出一款支援5G的8K電視
Huawei 華為計劃在2019年
早在這之前就一直有多方消息指出Huawei將進軍智能電視領域,而
TX-NR656 如何調整重低音?
TX-NR656 如何調整重低音?
發現換了一台擴大機TX-NR656後,有一些電影重低音場景較多,發
預售屋之家庭劇院規劃管線預埋與音響放置問題
預售屋之家庭劇院規劃管線
本帖最後由 love512rx 於 2019-1-18 09:57 PM 編輯 目前在規

聯絡我們| 問題反映| 小黑屋| 手機版| Archiver|  本網站特別聘請 蔡家豪律師 為本站法律顧問

快速回覆 返回頂部 返回列表