6hzzz 發表於 2020-8-15 23:41:20

zidoo Z10PRO : 4K終極進化.獨家採用RTD1619DR.首家原生支援 MKV Dolby Vision 播放機

本文最後由 6hzzz 於 2020-11-24 12:13 AM 編輯



【前 言】

Dolby Vision 一直以來是硬碟播放機無法觸及的處女地,叫人又愛又恨。。
記得幾年前,曾聽廠商大佬說過,Dolby Vision授權門檻是5W USD入門費+5 USD/unit權利金。確實成功的把諸多廠商擋在了門外。。
關於Dolby Vision,大家一定聽說過什麽單層,雙層,Profile7,Profile5之類的術語。作為精研的一份子,很有必要先來了解一下哈。。
爲了不產生誤解,本文僅引用杜比官方的文檔:

上圖表中左邊紅色框內是幾種常見的特性格式,右邊紅框內則是具有BL(基本層Base Layer)+EL(增強層Enhancement Layer)的雙層特性格式。
Profile7就是dvhe.07,也就是UHDBD所採用的特性格式了。圖中Profile4(dvhe.04)也是雙層,它和Profile7又有何不同呢?

先來看Profile7,它是UHDBD所獨有的:

上圖列出了各種支援Dolby Vision設備的播放能力,可以看出OTT盒子和STB機上盒只支援單層的dvhe.05和dvhe.08,也就是Profile5和Profile8。而那個Profile9只支援8bitAVC解碼。。

想要看清Profile7,必須先來了解下杜比的單軌和雙軌文檔,先來看雙軌:


舉個栗子:
https://hd.club.tw/data/attachment/forum/201912/13/004912jhv9w0cghlh9owdj.png

選其中一個M2TS檔,用MediaInfo查看:

兩個紅框表示有兩條視訊軌,Video#1=BL Track,Video#2=EL Track,可見Profile7為雙軌的Dolby Vision文檔。

再來看單軌:

單軌又分為,單軌單層和單軌雙層。簡單來說,Profile5和Profile8是單軌單層文檔;Profile4和Profile6則是單軌雙層文檔。
額。。Profile6又是什麽鬼,之前怎麼沒說?看圖:

原來,Profile6已經被杜比拋棄了。。

用上面的那個栗子轉成Profile6單軌雙層TS文檔:

此文檔只包含一條視訊軌,卻包含了BL,EL和RPU全部數據!(雙軌轉單軌雙層TS檔,可參看此帖)上面那個紅箭頭是何用意?嗯,後面會講。。先來講下Profile4和Profile6之間的區別,好填一下之前挖的Profile4和Profile7有何不同的坑。。
簡單講,Profile4兼容SDR( BT.1886, ITU-R BT.709, YCbCr 4:2:0);而Profile6則兼容HDR10。就是說,顯示設備不支援Dolby Vision時,Profile4可以看到SDR版內容,Profile6可以看到HDR10版內容。還有一個區別留給後面填紅箭頭的坑再說。。

回到Profile7 UHDBD,EL層又分為MEL(Minimal enhancement layer)和FEL(Full enhancement layer):

好了,看到這終於可以把挖的坑都填上了。總結:

Profile4和Profile6:兩者都是單軌雙層文檔,Profile4兼容SDR,Profile6兼容HDR10;另外,Profile4只支援MEL,Profile6則支援FEL。
Profile6和Profile7:前者是單軌雙層文檔;後者是雙軌文檔。兩者都兼容HDR10支援FEL。
Profile4和Profile7:前者是單軌雙層文檔,兼容SDR支援MEL;後者是雙軌文檔,兼容HDR10支援FEL。
紅色箭頭指的是,製作母帶用來分級調色是,峰值亮度為4000nit的監視器。要想從1000nit的BL層重建12位4000nit訊號,則必須採用FEL。

聊完雙軌和雙層,那單層Profile5和Profile8又有何區別呢?

Profile5:採用Dolby Vision專有的IPT顏色空間,採用全域範圍( full range),不兼容其它格式。
Profile8:兼容SDR或HDR10或HLG。(iPhone 12 支援Profile 8.4 見本帖5樓)

同場加映影院版Dolby Vision VS 家用版Dolby Vision:


杜比視界兩種規格與EDID
329463078

6hzzz 發表於 2020-8-18 00:32:46

本文最後由 6hzzz 於 2020-8-19 05:07 PM 編輯

【硬體篇】

提到支援杜比視界的硬體,不得不提全球首款支援Dolby Vision超高清機上盒晶片解決方案,和只是曇花一現的全球首款支援杜比視界的IPTV機頂盒。

在杜比官方網站可以查到與海思同期的,還有瑞昱半導體和聯發科技。


五年前,《杜比與瑞昱半導體發布首批Dolby Vision數位電視系統晶片之一》文中就提到:
“Dolby Vision VS10通用的高動態範圍(HDR)播放解決方案既支持雙層和單層Dolby Vision碼流,又支持基於SMPTE ST-2084標準的其他高動態範圍影像。這能夠讓顯示器充分利用峰值亮度、局部對比度以及更廣色域相結合的優勢,極大地提升家庭觀看體驗。”

五年後,我們終於等來了,業內首家支援Dolby Vision的硬碟播放機,採用瑞昱RTD1619DR的zidoo最新一代機型。之前官方釋出的相關信息:“RTD1619DR集成了Dolby Vision VS10處理引擎,支援杜比視界 Profile 4,5,8,9 MEL。不僅能輸出高品質的Dolby Vision Low Latency(LLDV),而且能利用VS10引擎處理任何內容以得到最好的畫面質量。”重點:在RTD1619系列中只有帶DR後綴的才支援Dolby Vision!

各位觀眾,掌聲歡迎本篇主角Z10 PRO登場:(掌聲靠腦補哈XD)

額。。咋一上來就脫光光了呢。。爲了不浪費大家的時間,也是蠻拼的。。難道我會告訴你,想盡各種辦法,費了九牛二虎之力才把頂蓋撬開的麼。。


這下,可以把M400的光纖端子利用上了,USB則連接PC,不用來回插拔了。。完美

Z10 PRO功能一覽

如此多能,天下還能找出第二家來麼??

6hzzz 發表於 2020-8-18 00:37:44

本文最後由 6hzzz 於 2020-8-20 09:27 AM 編輯

【軟體篇】

以往到了此處,總是貼滿屏幕的截圖,頁面不停的加載,看客也只能被動的接受。。
今次不同以往,直接上高清錄影畫面,不僅對機器的流暢性更有直觀的感受,而且可以快進看自己想看的內容:
開機嚮導+設定+高級設定+開發人員選項:前一分鐘為開機嚮導,之後是機器的設定選項,三分十五開始是機器的高級設定選項。
(1號影像)
286680698
在藍牙設定裡頭,沒有找到藍牙的開關按鈕。

打開開發人員選項裡頭的ignoring HDMI EDID選項(在1號影像的03:43處),重啟機器後會出現所有的HDR選項:
(2號影像)
244202616
有了VS10引擎的加持,實際使用推薦關閉此項,好讓機器自動識別開啟HDR2SDR轉換。SDR電視用家的有福了,比如說,我。之後的【實測篇】將全部啟用VS10引擎進行。

安裝YouTube和Netflix app操作演示:
(3號影像)
839228173

6hzzz 發表於 2020-8-18 11:18:18

本文最後由 6hzzz 於 2020-11-28 03:38 PM 編輯

【實測篇】

測試環境:


Z10 PRO 開啟VS10引擎後,會自動切換到4K60p(HDMI 2.0)或4K30p(HDMI 1.4)。為了方便HDMI錄影,關閉了幀率匹配功能。HDMIOUT連接至X9S的HDMI IN做錄影操作。考慮到X9S不能超過30p錄製,因此在X9S的HDMI Rx Version選擇了1.4。由於默認4K30p,所以遇到非30p的片源跳格在所難免。另外,422只能8bit輸出,直連電視是422 10bit輸出。

測試前,先把亮度和對比度調好,尤其是啟用了VS10引擎後,會對黑位有所改變,必須重新校正:
(4號影像)
884200395
降低亮度使黑位正確

接下來,利用BT.2111彩條調校PQ和HLG畫面:
(5號影像)
626694285
可以看到,PQ彩條的高光80%~109%梯階層次丟失,對比度調到最低也無法挽回。然而用滴管查看109%的RGB值卻很低,所以適當提高對比度,總比同時失去高光亮度和高光細節要好。HLG彩條有高光層次,把亮度調到最低,在不丟失高光層次的前提下,提高對比度,把109%的RGB值儘量向BT.2111的數值靠近。

Dolby Vision文檔測試

TS文檔測試
dvhe.06.06 測試

(6號影像)
626737253

dvhe.06.06 內嵌PGS 測試

(7號影像)
839317698

dvhe.06.09 測試

(8號影像)
711839979

MP4文檔測試
Profile5:

Profile8:

(9號影像)
286863636

MKV文檔測試
Profile4:


Profile5:


Profile7 FEL:


Profile7 MEL:


Profile8:


(10號影像)
884254523

HLG TS文檔測試

(11號影像)
711847401

HLG 串流測試
(12號影像)
711807541
在PP HW+ OMX解碼模式下,切換頻道可以啟用HDR2SDR,但只是曇花一現不能保持。用KODI18.8和ProgTV最新beta版測試,也是無法啟用VS10的HDR2SDR能力。

海報墻3.0,UHDBD導航,MKV播放測試。因網路原因,現只能獲取到豆瓣的海報數據。海報牆3.0使用技巧請點閱


(13號影像)
541754198

MUSIC6.0 採樣率匹配播放測試



(14號影像)
414349917
測試完後,用光纖端子駁接到M400進行解碼聆聽,不知怎的,有種穿越時空的錯覺。。找回了第一次聆聽CD的那種脫胎換骨的感覺。。

爲了更方便直觀的比較,特追加相同影像內容,四個不同HDR版本的片源測試:

1.Dolby Vision dvhe.05.07
Video
ID                                       : 1
Format                                 : HEVC
Format/Info                              : High Efficiency Video Coding
Format profile                           : Main 10@L5@High
HDR format                               : Dolby Vision, Version 1.0, dvhe.05.07, BL+RPU
Codec ID                                 : dvhe
Codec ID/Info                            : High Efficiency Video Coding with Dolby Vision
Duration                                 : 11 min 8 s
Bit rate                                 : 14.3 Mb/s
Width                                    : 3 840 pixels
Height                                 : 2 160 pixels
Display aspect ratio                     : 16:9
Frame rate mode                        : Constant
Frame rate                               : 25.000 FPS
Color space                              : YUV
Chroma subsampling                     : 4:2:0
Bit depth                              : 10 bits
Bits/(Pixel*Frame)                     : 0.069
Stream size                              : 1.11 GiB (99%)
Writing library                        : x265 3.4hy: 10bit
Encoding settings                        : cpuid=1111039 / frame-threads=6 / wpp / no-pmode / no-pme / no-psnr / no-ssim / log-level=2 / input-csp=1 / input-res=3840x2160 / interlace=0 / total-frames=0 / level-idc=0 / high-tier=1 / uhd-bd=0 / ref=4 / no-allow-non-conformance / repeat-headers / annexb / aud / hrd / info / hash=0 / no-temporal-layers / no-open-gop / min-keyint=25 / keyint=250 / gop-lookahead=0 / bframes=4 / b-adapt=2 / b-pyramid / bframe-bias=0 / rc-lookahead=50 / lookahead-slices=4 / scenecut=0 / hist-scenecut=0 / radl=0 / no-splice / no-intra-refresh / ctu=64 / min-cu-size=8 / rect / no-amp / max-tu-size=32 / tu-inter-depth=1 / tu-intra-depth=1 / limit-tu=0 / rdoq-level=2 / dynamic-rd=0.00 / no-ssim-rd / signhide / no-tskip / nr-intra=100 / nr-inter=400 / no-constrained-intra / strong-intra-smoothing / max-merge=3 / limit-refs=3 / limit-modes / me=3 / subme=3 / merange=57 / temporal-mvp / no-frame-dup / no-hme / weightp / no-weightb / no-analyze-src-pics / deblock=0:0 / sao / no-sao-non-deblock / rd=4 / selective-sao=4 / no-early-skip / rskip / no-fast-intra / no-tskip-fast / no-cu-lossless / no-b-intra / no-splitrd-skip / rdpenalty=0 / psy-rd=0.00 / psy-rdoq=1.00 / no-rd-refine / no-lossless / cbqpoffs=0 / crqpoffs=3 / rc=abr / bitrate=16000 / qcomp=0.60 / qpstep=4 / stats-write=0 / stats-read=2 / cplxblur=20.0 / qblur=0.5 / vbv-maxrate=16800 / vbv-bufsize=48000 / vbv-init=0.6 / vbv-end=0.6 / vbv-end-fr-adj=0.0 / ipratio=1.40 / pbratio=1.30 / aq-mode=2 / aq-strength=1.00 / cutree / zone-count=0 / no-strict-cbr / qg-size=32 / no-rc-grain / qpmax=69 / qpmin=0 / no-const-vbv / sar=1 / overscan=0 / videoformat=5 / range=1 / colorprim=2 / transfer=2 / colormatrix=2 / chromaloc=0 / display-window=0 / cll=0,0 / min-luma=0 / max-luma=1023 / log2-max-poc-lsb=8 / vui-timing-info / vui-hrd-info / no-concatenation / slices=1 / no-opt-qp-pps / no-opt-ref-list-length-pps / no-multi-pass-opt-rps / scenecut-bias=0.05 / hist-threshold=0.01 / no-opt-cu-delta-qp / no-aq-motion / no-hdr10 / no-hdr10-opt / no-dhdr10-opt / no-idr-recovery-sei / analysis-reuse-level=0 / analysis-save-reuse-level=0 / analysis-load-reuse-level=0 / scale-factor=0 / refine-intra=0 / refine-inter=0 / refine-mv=1 / refine-ctu-distortion=0 / no-limit-sao / ctu-info=0 / no-lowpass-dct / refine-analysis-type=0 / copy-pic=1 / max-ausize-factor=1.0 / no-dynamic-refine / no-single-sei / no-hevc-aq / no-svt / no-field / qp-adaptation-range=1.00 / no-scenecut-aware-qpconformance-window-offsets / right=0 / bottom=0 / decoder-max-rate=0
Default                                  : Yes
Alternate group                        : 1
Encoded date                           : UTC 2020-08-03 08:07:26
Tagged date                              : UTC 2020-08-03 08:07:26
Color range                              : Full
Codec configuration box                  : hvcC+dvcC

Audio
ID                                       : 2
Format                                 : AAC LC
Format/Info                              : Advanced Audio Codec Low Complexity
Format profile                           : AAC@L2
Codec ID                                 : mp4a-40-2
Duration                                 : 11 min 8 s
Bit rate mode                            : Variable
Bit rate                                 : 192 kb/s
Maximum bit rate                         : 195 kb/s
Channel(s)                               : 2 channels
Channel layout                           : L R
Sampling rate                            : 48.0 kHz
Frame rate                               : 46.875 FPS (1024 SPF)
Compression mode                         : Lossy
Stream size                              : 15.1 MiB (1%)
Default                                  : No
Encoded date                           : UTC 2020-08-03 08:07:26
Tagged date                              : UTC 2020-08-03 08:07:26542038560

2.HDR10+ Profile B
Video
ID                                       : 1
Format                                 : HEVC
Format/Info                              : High Efficiency Video Coding
Format profile                           : Main 10@L5.1@Main
HDR format                               : SMPTE ST 2094 App 4, Version 1, HDR10+ Profile B compatible
Codec ID                                 : hev1
Codec ID/Info                            : High Efficiency Video Coding
Duration                                 : 11 min 8 s
Bit rate                                 : 12.0 Mb/s
Width                                    : 3 840 pixels
Height                                 : 2 160 pixels
Display aspect ratio                     : 16:9
Frame rate mode                        : Constant
Frame rate                               : 25.000 FPS
Color space                              : YUV
Chroma subsampling                     : 4:2:0 (Type 2)
Bit depth                              : 10 bits
Bits/(Pixel*Frame)                     : 0.058
Stream size                              : 958 MiB (98%)
Writing library                        : x265 3.4+2-73ca1d7be377: 10bit
Encoding settings                        : cpuid=1111039 / frame-threads=3 / numa-pools=8 / wpp / no-pmode / no-pme / no-psnr / no-ssim / log-level=2 / input-csp=1 / input-res=3840x2160 / interlace=0 / total-frames=0 / level-idc=51 / high-tier=1 / uhd-bd=0 / ref=3 / no-allow-non-conformance / repeat-headers / annexb / aud / hrd / info / hash=0 / no-temporal-layers / open-gop / min-keyint=1 / keyint=24 / gop-lookahead=0 / bframes=3 / b-adapt=2 / b-pyramid / bframe-bias=0 / rc-lookahead=4 / lookahead-slices=8 / scenecut=90 / hist-scenecut=0 / radl=0 / no-splice / no-intra-refresh / ctu=64 / min-cu-size=8 / no-rect / no-amp / max-tu-size=32 / tu-inter-depth=1 / tu-intra-depth=1 / limit-tu=0 / rdoq-level=0 / dynamic-rd=0.00 / no-ssim-rd / signhide / no-tskip / nr-intra=0 / nr-inter=0 / no-constrained-intra / strong-intra-smoothing / max-merge=3 / limit-refs=1 / no-limit-modes / me=1 / subme=2 / merange=57 / temporal-mvp / no-frame-dup / no-hme / weightp / no-weightb / no-analyze-src-pics / deblock=0:0 / sao / no-sao-non-deblock / rd=3 / selective-sao=4 / early-skip / rskip / no-fast-intra / no-tskip-fast / no-cu-lossless / b-intra / no-splitrd-skip / rdpenalty=0 / psy-rd=2.00 / psy-rdoq=0.00 / no-rd-refine / no-lossless / cbqpoffs=0 / crqpoffs=0 / rc=abr / bitrate=16000 / qcomp=0.60 / qpstep=4 / stats-write=0 / stats-read=0 / vbv-maxrate=18500 / vbv-bufsize=19000 / vbv-init=0.9 / ipratio=1.40 / pbratio=1.30 / aq-mode=2 / aq-strength=1.00 / cutree / zone-count=0 / no-strict-cbr / qg-size=32 / no-rc-grain / qpmax=69 / qpmin=0 / no-const-vbv / sar=0 / overscan=0 / videoformat=5 / range=0 / colorprim=9 / transfer=16 / colormatrix=9 / chromaloc=1 / chromaloc-top=2 / chromaloc-bottom=2 / display-window=0 / master-display=G(13250,34500)B(7500,3000)R(34000,16000)WP(15635,16450)L(10000000,1) / cll=1000,400 / min-luma=0 / max-luma=1023 / log2-max-poc-lsb=8 / vui-timing-info / vui-hrd-info / slices=1 / no-opt-qp-pps / no-opt-ref-list-length-pps / no-multi-pass-opt-rps / scenecut-bias=0.05 / hist-threshold=0.01 / no-opt-cu-delta-qp / no-aq-motion / hdr10 / hdr10-opt / no-dhdr10-opt / no-idr-recovery-sei / analysis-reuse-level=0 / analysis-save-reuse-level=0 / analysis-load-reuse-level=0 / scale-factor=0 / refine-intra=0 / refine-inter=0 / refine-mv=1 / refine-ctu-distortion=0 / no-limit-sao / ctu-info=0 / no-lowpass-dct / refine-analysis-type=0 / copy-pic=1 / max-ausize-factor=1.0 / no-dynamic-refine / no-single-sei / no-hevc-aq / no-svt / no-field / qp-adaptation-range=1.00 / no-scenecut-aware-qpconformance-window-offsets / right=0 / bottom=0 / decoder-max-rate=0
Color range                              : Limited
Color primaries                        : BT.2020
Transfer characteristics               : PQ
Matrix coefficients                      : BT.2020 non-constant
Mastering display color primaries      : Display P3
Mastering display luminance            : min: 0.0001 cd/m2, max: 1000 cd/m2
Maximum Content Light Level            : 1000 cd/m2
Maximum Frame-Average Light Level      : 400 cd/m2
Codec configuration box                  : hvcC

Audio
ID                                       : 2
Format                                 : AAC LC
Format/Info                              : Advanced Audio Codec Low Complexity
Codec ID                                 : mp4a-40-2
Duration                                 : 11 min 8 s
Bit rate mode                            : Constant
Bit rate                                 : 183 kb/s
Channel(s)                               : 2 channels
Channel layout                           : L R
Sampling rate                            : 48.0 kHz
Frame rate                               : 46.875 FPS (1024 SPF)
Compression mode                         : Lossy
Stream size                              : 14.6 MiB (1%)
Default                                  : Yes
Alternate group                        : 1884502920

3.HDR10
Video
ID                                       : 1
Format                                 : HEVC
Format/Info                              : High Efficiency Video Coding
Format profile                           : Main 10@L5.1@Main
HDR format                               : SMPTE ST 2086, HDR10 compatible
Codec ID                                 : hev1
Codec ID/Info                            : High Efficiency Video Coding
Duration                                 : 11 min 8 s
Bit rate                                 : 12.0 Mb/s
Width                                    : 3 840 pixels
Height                                 : 2 160 pixels
Display aspect ratio                     : 16:9
Frame rate mode                        : Constant
Frame rate                               : 25.000 FPS
Color space                              : YUV
Chroma subsampling                     : 4:2:0 (Type 2)
Bit depth                              : 10 bits
Scan type                              : Progressive
Bits/(Pixel*Frame)                     : 0.058
Stream size                              : 959 MiB (98%)
Writing library                        : x265 3.4+2-73ca1d7be377: 10bit
Encoding settings                        : cpuid=1111039 / frame-threads=3 / numa-pools=8 / wpp / no-pmode / no-pme / no-psnr / no-ssim / log-level=2 / input-csp=1 / input-res=3840x2160 / interlace=0 / total-frames=0 / level-idc=51 / high-tier=1 / uhd-bd=0 / ref=3 / no-allow-non-conformance / repeat-headers / annexb / aud / hrd / info / hash=0 / no-temporal-layers / open-gop / min-keyint=1 / keyint=24 / gop-lookahead=0 / bframes=3 / b-adapt=2 / b-pyramid / bframe-bias=0 / rc-lookahead=4 / lookahead-slices=8 / scenecut=90 / hist-scenecut=0 / radl=0 / no-splice / no-intra-refresh / ctu=64 / min-cu-size=8 / no-rect / no-amp / max-tu-size=32 / tu-inter-depth=1 / tu-intra-depth=1 / limit-tu=0 / rdoq-level=0 / dynamic-rd=0.00 / no-ssim-rd / signhide / no-tskip / nr-intra=0 / nr-inter=0 / no-constrained-intra / strong-intra-smoothing / max-merge=3 / limit-refs=1 / no-limit-modes / me=1 / subme=2 / merange=57 / temporal-mvp / no-frame-dup / no-hme / weightp / no-weightb / no-analyze-src-pics / deblock=0:0 / sao / no-sao-non-deblock / rd=3 / selective-sao=4 / early-skip / rskip / no-fast-intra / no-tskip-fast / no-cu-lossless / b-intra / no-splitrd-skip / rdpenalty=0 / psy-rd=2.00 / psy-rdoq=0.00 / no-rd-refine / no-lossless / cbqpoffs=0 / crqpoffs=0 / rc=abr / bitrate=16000 / qcomp=0.60 / qpstep=4 / stats-write=0 / stats-read=0 / vbv-maxrate=18500 / vbv-bufsize=19000 / vbv-init=0.9 / ipratio=1.40 / pbratio=1.30 / aq-mode=2 / aq-strength=1.00 / cutree / zone-count=0 / no-strict-cbr / qg-size=32 / no-rc-grain / qpmax=69 / qpmin=0 / no-const-vbv / sar=0 / overscan=0 / videoformat=5 / range=0 / colorprim=9 / transfer=16 / colormatrix=9 / chromaloc=1 / chromaloc-top=2 / chromaloc-bottom=2 / display-window=0 / master-display=G(13250,34500)B(7500,3000)R(34000,16000)WP(15635,16450)L(10000000,1) / cll=1000,400 / min-luma=0 / max-luma=1023 / log2-max-poc-lsb=8 / vui-timing-info / vui-hrd-info / slices=1 / no-opt-qp-pps / no-opt-ref-list-length-pps / no-multi-pass-opt-rps / scenecut-bias=0.05 / hist-threshold=0.01 / no-opt-cu-delta-qp / no-aq-motion / hdr10 / hdr10-opt / no-dhdr10-opt / no-idr-recovery-sei / analysis-reuse-level=0 / analysis-save-reuse-level=0 / analysis-load-reuse-level=0 / scale-factor=0 / refine-intra=0 / refine-inter=0 / refine-mv=1 / refine-ctu-distortion=0 / no-limit-sao / ctu-info=0 / no-lowpass-dct / refine-analysis-type=0 / copy-pic=1 / max-ausize-factor=1.0 / no-dynamic-refine / no-single-sei / no-hevc-aq / no-svt / no-field / qp-adaptation-range=1.00 / no-scenecut-aware-qpconformance-window-offsets / right=0 / bottom=0 / decoder-max-rate=0
Color range                              : Limited
Color primaries                        : BT.2020
Transfer characteristics               : PQ
Matrix coefficients                      : BT.2020 non-constant
Mastering display color primaries      : Display P3
Mastering display luminance            : min: 0.0001 cd/m2, max: 1000 cd/m2
Maximum Content Light Level            : 1000 cd/m2
Maximum Frame-Average Light Level      : 400 cd/m2
Codec configuration box                  : hvcC

Audio
ID                                       : 2
Format                                 : AAC LC
Format/Info                              : Advanced Audio Codec Low Complexity
Codec ID                                 : mp4a-40-2
Duration                                 : 11 min 8 s
Bit rate mode                            : Variable
Bit rate                                 : 183 kb/s
Maximum bit rate                         : 192 kb/s
Channel(s)                               : 2 channels
Channel layout                           : L R
Sampling rate                            : 48.0 kHz
Frame rate                               : 46.875 FPS (1024 SPF)
Compression mode                         : Lossy
Stream size                              : 14.6 MiB (1%)
Default                                  : Yes
Alternate group                        : 1839574391

4.HLG10
Video
ID                                       : 1
Format                                 : HEVC
Format/Info                              : High Efficiency Video Coding
Format profile                           : Main 10@L5.1@Main
Codec ID                                 : hev1
Codec ID/Info                            : High Efficiency Video Coding
Duration                                 : 11 min 8 s
Bit rate                                 : 11.9 Mb/s
Width                                    : 3 840 pixels
Height                                 : 2 160 pixels
Display aspect ratio                     : 16:9
Frame rate mode                        : Constant
Frame rate                               : 25.000 FPS
Color space                              : YUV
Chroma subsampling                     : 4:2:0
Bit depth                              : 10 bits
Bits/(Pixel*Frame)                     : 0.058
Stream size                              : 952 MiB (98%)
Writing library                        : x265 3.4+2-73ca1d7be377: 10bit
Encoding settings                        : cpuid=1111039 / frame-threads=3 / numa-pools=8 / wpp / no-pmode / no-pme / no-psnr / no-ssim / log-level=2 / input-csp=1 / input-res=3840x2160 / interlace=0 / total-frames=0 / level-idc=51 / high-tier=1 / uhd-bd=0 / ref=3 / no-allow-non-conformance / repeat-headers / annexb / aud / hrd / info / hash=0 / no-temporal-layers / open-gop / min-keyint=1 / keyint=24 / gop-lookahead=0 / bframes=3 / b-adapt=2 / b-pyramid / bframe-bias=0 / rc-lookahead=4 / lookahead-slices=8 / scenecut=95 / hist-scenecut=0 / radl=0 / no-splice / no-intra-refresh / ctu=64 / min-cu-size=8 / no-rect / no-amp / max-tu-size=32 / tu-inter-depth=1 / tu-intra-depth=1 / limit-tu=0 / rdoq-level=0 / dynamic-rd=0.00 / no-ssim-rd / signhide / no-tskip / nr-intra=0 / nr-inter=0 / no-constrained-intra / strong-intra-smoothing / max-merge=3 / limit-refs=1 / no-limit-modes / me=1 / subme=2 / merange=57 / temporal-mvp / no-frame-dup / no-hme / weightp / no-weightb / no-analyze-src-pics / deblock=0:0 / sao / no-sao-non-deblock / rd=3 / selective-sao=4 / early-skip / rskip / no-fast-intra / no-tskip-fast / no-cu-lossless / b-intra / no-splitrd-skip / rdpenalty=0 / psy-rd=2.00 / psy-rdoq=0.00 / no-rd-refine / no-lossless / cbqpoffs=0 / crqpoffs=0 / rc=abr / bitrate=16000 / qcomp=0.60 / qpstep=4 / stats-write=0 / stats-read=0 / vbv-maxrate=18500 / vbv-bufsize=20000 / vbv-init=0.9 / ipratio=1.40 / pbratio=1.30 / aq-mode=2 / aq-strength=1.00 / cutree / zone-count=0 / no-strict-cbr / qg-size=32 / no-rc-grain / qpmax=69 / qpmin=0 / no-const-vbv / sar=1 / overscan=0 / videoformat=5 / range=0 / colorprim=2 / transfer=2 / colormatrix=2 / chromaloc=0 / display-window=0 / cll=0,0 / min-luma=0 / max-luma=1023 / log2-max-poc-lsb=8 / vui-timing-info / vui-hrd-info / slices=1 / no-opt-qp-pps / no-opt-ref-list-length-pps / no-multi-pass-opt-rps / scenecut-bias=0.05 / hist-threshold=0.01 / no-opt-cu-delta-qp / no-aq-motion / no-hdr10 / no-hdr10-opt / no-dhdr10-opt / no-idr-recovery-sei / analysis-reuse-level=0 / analysis-save-reuse-level=0 / analysis-load-reuse-level=0 / scale-factor=0 / refine-intra=0 / refine-inter=0 / refine-mv=1 / refine-ctu-distortion=0 / no-limit-sao / ctu-info=0 / no-lowpass-dct / refine-analysis-type=0 / copy-pic=1 / max-ausize-factor=1.0 / no-dynamic-refine / no-single-sei / no-hevc-aq / no-svt / no-field / qp-adaptation-range=1.00 / no-scenecut-aware-qpconformance-window-offsets / right=0 / bottom=0 / decoder-max-rate=0
Color range                              : Limited
Color primaries                        : BT.2020
Transfer characteristics               : HLG
Matrix coefficients                      : BT.2020 non-constant
Codec configuration box                  : hvcC

Audio
ID                                       : 2
Format                                 : AAC LC
Format/Info                              : Advanced Audio Codec Low Complexity
Codec ID                                 : mp4a-40-2
Duration                                 : 11 min 8 s
Bit rate mode                            : Constant
Bit rate                                 : 183 kb/s
Channel(s)                               : 2 channels
Channel layout                           : L R
Sampling rate                            : 48.0 kHz
Frame rate                               : 46.875 FPS (1024 SPF)
Compression mode                         : Lossy
Stream size                              : 14.6 MiB (2%)
Default                                  : Yes
Alternate group                        : 1244594641


不完全總結

經過幾番測試,新機器脾性已基本摸清。

先說優點:
獨家採用RTD1619DR SOC,一改硬碟播放機不能Dolby Vision的歷史!
獨家原生支援各種格式的Dolby Vision文檔,MP4,TS,MKV!搞定MKV封裝為何如此重要?如果把Profile7雙軌文檔轉換成單軌雙層文檔,然後同特效字幕跟全景聲音軌用MKV來封裝是最好的選擇。
新機有了VS10引擎的加持,HDR2SDR畫質果然有了質的飛躍,就連缺少maxCLL/FALL元數據的片源,也褪去了陰霾變得亮麗起來。
支援LLDV輸出,此模式強制輸出杜比視界訊號,點亮支援LLDV電視的DV logo。支援DRM widevine L1,有了它Netflix就可以4K HDR咯!(不過NF的Dolby Vision目前還不支援)再就是,海報墻一如既往的強大,(聽說讓人驚豔的新版海報墻4.0正在開發當中)手機端控制APP一如既往的好用。。還有太多優點喔,如果您是用家可慢慢自行去體會啦。
再說說缺點:
新機出廠韌體嘛,總會有些瑕疵,需要時間來磨合。通過上面的測試,可發現PQ高光層次丟失問題;串流不能啟用VS10 HDR2SDR問題;Dolby Vision文檔兼容性問題,這個也許不是問題,等MKV封裝DV成熟穩定下來,必然會淘汰MP4跟TS封裝格式,以芝杜長期以來維護韌體的表現來看,相信用不了多久,我們就會迎來硬碟機播放Dolby Vision的時代。最近聽說,國外大神正在測試FEL無損轉換MEL,如果成功又是大功一件啊!需要說明的是,本次測試Dolby Vision播放能力,是一律轉為SDR輸出的。是否正確輸出Dolby Vision訊號,還有待支援Dolby Vision電視用家的測試。

6hzzz 發表於 2020-10-21 22:38:48

本文最後由 6hzzz 於 2020-11-14 12:06 AM 編輯

iPhone 12 shoots video in a newer version of Dolby Vision called Profile 8.4 that’s built on a standard called HLG, or hybrid log-gamma. HLG works differently than PQ systems; it was developed by broadcasters like the BBC and NHK to be backwards compatible with SDR displays so they would only have to broadcast one video stream.

All this means that an iPhone 12 HDR video is a 10-bit HLG file with additional Dolby Vision metadata on top, and it will happily play back as SDR on SDR displays, HLG on HLG displays, and Dolby Vision on Dolby Vision displays that support Profile 8.4.



Video
ID                                       : 1
Format                                 : HEVC
Format/Info                              : High Efficiency Video Coding
Format profile                           : Main 10@L5.1@High
HDR format                               : Dolby Vision, Version 1.0, dvhe.08.0A, BL+RPU, HLG compatible
Codec ID                                 : hvc1
Codec ID/Info                            : High Efficiency Video Coding

Bit rate                                 : 54.3 Mb/s
Width                                    : 3 840 pixels
Height                                 : 2 160 pixels
Display aspect ratio                     : 16:9
Rotation                                 : 180°
Frame rate mode                        : Constant
Frame rate                               : 60.000 FPS
Color space                              : YUV
Chroma subsampling                     : 4:2:0
Bit depth                              : 10 bits
Bits/(Pixel*Frame)                     : 0.109
Stream size                              : 52.8 MiB (100%)
Title                                    : Core Media Video

Color range                              : Limited
Color primaries                        : BT.2020
Transfer characteristics               : HLG
Matrix coefficients                      : BT.2020 non-constant
Codec configuration box                  : hvcC+dvvC

mason huang 發表於 2020-10-22 15:46:17

不知道zidoo Z10PRO這台撥放HLG是否可以正確丟出HLG訊號給顯示器?
試了很多台撥放器,要嘛轉成HDR,不然就是當成SDR在播,沒一台可以正確播放HLG檔案的......{:1_543:}

6hzzz 發表於 2020-10-22 16:09:42

mason huang 發表於 2020-10-22 03:46 PM
不知道zidoo Z10PRO這台撥放HLG是否可以正確丟出HLG訊號給顯示器?
試了很多台撥放器,要嘛轉成HDR,不然就是 ...

雖然我這無法測試,但是從官方了解到的資訊,是可以做到HLG直通直出的。

6hzzz 發表於 2020-10-28 21:49:11

本文最後由 6hzzz 於 2020-10-29 11:57 AM 編輯

應某群友的要求,特增海貝+S.M.S.L M400應用場景詳解:












打開服務端模式:



服務端打開后,在手機端打開客戶端模式:








現在播放完全可由手機來操控了,Z10pro+海貝+M400完美播放MQA。

6hzzz 發表於 2020-11-16 14:39:43

芝杜Z9X/Z10PRO/Z1000PRO v6.0.66公測固件

型號:Z9X

版本號:v6.0.66

連結:http://apidl.zidoo.tv/Z9X/v6.0.66/Z9X_P_v6.0.66_202011141611_ota-package.zip

MD5: 0D0A29725A4AEE31843F0D5FBF826FD8

陞級管道:OTA

版本類型:公測版本

版本號:v6.0.66_G(google play)

連結:http://apidl.zidoo.tv/Z9X/v6.0.66/Z9X_P_v6.0.66_G_202011141629_ota-package.zip

MD5: 1CD3CE11948EDD9E0ACF898AD6C1473E

陞級管道:OTA

版本類型:公測版本

型號:Z10 PRO

版本號:v6.0.66

連結:http://apidl.zidoo.tv/Z10_PRO/v6.0.66/Z10-Pro_P_v6.0.66_202011141707_ota-package.zip

MD5: C78B33CC91CBB786768B9D225B07A370

陞級管道:OTA

版本類型:公測版本

版本號:v6.0.66_G(google play)

連結:http://apidl.zidoo.tv/Z10_PRO/v6.0.66/Z10-Pro_P_v6.0.66_G_202011141724_ota-package.zip

MD5: 338B27D8457450C16B4AE996971CDE5A

陞級管道:OTA

版本類型:公測版本

型號:Z1000 Pro

版本號:v6.0.66

連結:http://apidl.zidoo.tv/Z1000_PRO/v6.0.66/Z1000-Pro_P_v6.0.66_202011141751_ota-package.zip

MD5: 24AA9A8D41C9BFB4A9AFDB508F1ECA7F

陞級管道:OTA

版本類型:公測版本

版本號:v6.0.66_G(google play)

連結:http://apidl.zidoo.tv/Z1000_PRO/v6.0.66/Z1000-Pro_P_v6.0.66_G_202011141809_ota-package.zip

MD5: 49250197A5ACED37FDD221DD91CC4B6A

陞級管道:OTA

版本類型:公測版本

溫馨提示:帶有“ G ”和沒有“ G ”的固件版本 除了Google Play商店沒有區別;

如果已經使用帶“ G ” 的固件 ,請確保下次再次陞級“ G ” 固件。Zidoo將相應地定期發佈“ G ” 固件。

Google Play商店認證教程:

更新日誌

系統

1.修復個別地區不能獲取系統時間的問題

2.優化偶現不能關機的問題

3.優化線上視頻播放

4.新增多種杜比VS10模式

5.修復偶現不能關閉CEC功能的問題

6.RS232新增顏色鍵適配與修復開機後不能及時響應命令的問題

7.修復系統偶現顯示警告提示框的問題

8.新增USB源碼輸出(PCM原始取樣速率、DSD源碼, 實驗性功能,ZIDOO將不對USB DAC相容性負責)

9.優化主介面開機加載天氣與狀態顯示過慢的問題

10.修復無線熱點重啓機器不生效的問題

11.修復個別LG DV電視的VSIF問題導致的HDMI重新同步

12.USB 音訊開關,新增 VID/PID 顯示

13.優化快捷設定WIFI 清單有時不顯示 的問題

14.優化 Control4驅動顯示

15.優化 CEC 開關

16.優化 USB 音訊對監視器的適配

視頻播放機

1.修復TS格式續播偶現當前時間獲取不對的問題

2.新增HDR10+資訊顯示

3.優化加載視頻UI顯示

4.新增ASS字幕亮度設定

5.新增書簽顯示模式

6.新增PGS字幕亮度設定

7.新增CEC快速鍵適配

8.優化幀率切換

9.修復個別片源內寘文字字幕亂碼的問題

10.修復個別片源獲取不到音軌的問題

11.修復DV視頻,倍速播放偶現卡住的問題

12.修復個別視頻播放花屏的問題

13.優化部分UI顯示

14.修復通過手機快速切換下一首時,偶現不能播放的問題

15.新增MKV章節資訊顯示

16.修復個別影片播放黑屏的問題

17.優化某些DVD與MKV的Display aspect ratio

18.新增全域視頻比例開關

19.支持iphone12拍攝的杜比視界視頻

20.修改杜比官網下載的DV測試片不能播放的問題

21.新增 PGS 亮度調節全域或HDR環境下生效設定

HDMI IN

1.優化分辯率選擇

2.優化錄製的視頻播放卡頓的問題

3.新增60fps錄製

4.修復預約錄製不生效的問題

快捷設定

1.優化HDR設定

2.新增播放機書簽設定

3.修復默認下載字幕清單顯示出錯的問題

4.新增無線熱點設定

海報牆

1.NFO新增Clear Logo支持

2.優化設備清單焦點控制

3.優化海報詳情UI顯示

4.修復匯出NFO時,如果NFO檔案已存在,數據异常的問題

5.新增NFO檔案更多數據資訊,如預告片、導演、演員等數據

6.優化海報圖片加載速度

7.修復偶現加載海報圖片不成功的問題

8.優化本地海報圖片加載功能

9.優化數據還原功能

10.新增電視劇分頁選集功能

11.修復觀看記錄顯示不對的問題

12.修復兒童鎖導致不能選擇導航藍光的問題

13.優化TVDB劇集同人畫數據

14.優化電視據海報標題顯示

音樂播放機

1.優化網絡獲取歌詞準確度

2.優化部分UI顯示

3.優化線上匹配

4.優化歌曲名亂碼問題

5.優化歌曲資訊編輯

6.修復快速切換DTS音訊,偶現閃退的問題

7.修復音樂播放從檔案管理器播放偶現不能切歌的問題


6hzzz 發表於 2020-11-16 14:46:54

RTD1619DR機型Google Play商店認證教程


購買Zidoo RTD1619DR系列產品(包括Z9X,Z10pro和Z1000pro)的用戶可以通過以下2個步驟獲得Google Play商店並使用它:


一、使用Google Play商店陞級固件
想要使用Google Play商店的用戶需要通過OTA陞級方法陞級到帶有“ G ” 的固件版本。

溫馨提示:帶有“ G ”和沒有“ G ”的固件版本除了Google Play商店沒有區別;
如果已經在使用“ G ” 固件 ,請確保下次再次陞級“ G ” 固件。Zidoo將相應地定期發佈“ G ” 固件。


二、啟動Google Play商店
請按照以下指南啟動Google Play商店並成功訪問。
1、首先打開Z9X設備並確保已連接WiFi /以太網。網絡可以通過設定>快速設定網絡>無線/以太網;
2、進入全部應用運行穀歌商店,軟件會提示未認證設備並自動生成GSF ID,然後退出軟件;

3、快速設定>其它>關於> GSF ID 。用一張便箋手寫或者拍照記住GSF ID號碼,以後需要輸入這些號碼;
*如果未顯示GSF ID ,請按一下主頁>全部應用> Google Play商店中的Google Play商店圖標, 訪問Google Play商店後將顯示GSF ID 。

4、按遙控器上的滑鼠按鈕進入滑鼠模式。在“滑鼠”模式下,可以通過按“ 確定”按鈕來按一下GSF ID號。

*要退出滑鼠模式時,只需再次按一下遙控器上的滑鼠按鈕即可。

5、按一下GSF ID號之後,您將看到要登入Google帳戶和密碼的頁面,然後輸入GSF ID號,按一下“ 注册”以完成Google Play商店啟動。

*可以使用從未為Z9X設備啟動的任何Google帳戶。
*上面的第3或第4步也可以通過以下網站在手機或電腦上完成:https://www.google.com/android/uncertified/


6、 完成以上兩步後,通過主頁>全部應用>啟動Google Play>訪問Google Play商店。
注意:穀歌服務器存在延遲,完成Google商店啟動後請等待30分鐘左右,再重啓播放機進行Google帳號登入!!!


daniel0810 發表於 4 天前

請問海貝播放器安裝後要如何操作呢?用遙控器以"滑鼠"模式嗎?另外也想問我試過幾次都無法開啟"USB獨佔"模式,請問有什麼特別要注意的地方嗎?還是海貝必須要註冊?感激回覆。

6hzzz 發表於 4 天前

本文最後由 6hzzz 於 2020-11-25 10:14 PM 編輯

daniel0810 發表於 2020-11-25 06:35 PM
請問海貝播放器安裝後要如何操作呢?用遙控器以"滑鼠"模式嗎?另外也想問我試過幾次都無法開啟"USB獨佔"模 ...
可接USB或者藍牙滑鼠進行操作,開啟USB獨佔模式無需特殊設置啊,我也就打開了音頻設置的USB音頻開關而已,海貝沒註冊沒登陸。海貝版本多少?


連接后就會提示:



頁: [1]
查看完整版本: zidoo Z10PRO : 4K終極進化.獨家採用RTD1619DR.首家原生支援 MKV Dolby Vision 播放機