樓主: lucaschen
收起左側

[教學] 號稱無損分割H.264 TS的剪接軟體 - FAME Smart Cutter for DV and DVB

  [複製連結]
發表於 2010-7-22 14:12:40 | 顯示全部樓層
看着界面好复杂~不知道我可不可以学会
回覆 支持 反對

使用道具 檢舉

發表於 2010-7-27 11:33:38 | 顯示全部樓層
這一套看起來好像不錯用,安裝來試試看!  感謝分享!
回覆 支持 反對

使用道具 檢舉

發表於 2010-8-2 13:39:55 | 顯示全部樓層
前幾天才自己用威導8剪輯ts檔案
差點沒把在下的小命給嚇昏了
先來試用這個軟體  
感謝大大分享喔 ~ ^^
回覆 支持 反對

使用道具 檢舉

發表於 2010-8-8 06:31:49 | 顯示全部樓層
本文章最後由 rockzero18 於 2010-8-8 06:35 編輯

確實方便又好用...而且影片輸出速度比TMPGEnc MPEG Editor要快一些!
如果有聲音波形顯示功能就更好了!(避免切割點有一個frame長度的聲音)
回覆 支持 反對

使用道具 檢舉

發表於 2010-12-7 14:39:23 | 顯示全部樓層
1# lucaschen
不好意思有個小問題想請教一下
小弟把某個h264的ts檔案切割之後
出來的檔案卻變成avc1 這是為什麼呢...
回覆 支持 反對

使用道具 檢舉

發表於 2010-12-7 16:12:41 | 顯示全部樓層
曾經測試過 但不是那麼的好用 軟體強調以"幀數"去分割卻看不到幀數在哪裡?看的到僅是毫秒數.
一些特別的ts 不常見的fps以及擁有多重音軌 分割出來的檔案經常會無法播放 造成播放器死當.
如果是遇到vfr的h264 大概也猜到結果是如何的了...........


如下列:


C:\01.ts
   General
      Complete name : C:\01.ts
      Format : MPEG-TS
      Format profile : No PAT/PMT
      File size : 364 MiB
      Duration : 4mn 18s
      Overall bit rate : 11.8 Mbps
   Video #2920
      ID : 2920 (0xB68)
      Format : AVC
      Format/Info : Advanced Video Codec
      Format profile : Main@L4.0
      Format settings, CABAC : Yes
      Format settings, ReFrames : 2 frames
      Format settings, GOP : M=3, N=12
      Duration : 4mn 18s
      Bit rate mode : Variable
      Bit rate : 10.4 Mbps
      Maximum bit rate : 10.7 Mbps
      Width : 1 280 pixels
      Height : 720 pixels
      Display aspect ratio : 16:9
      Frame rate : 50.000 fps
      Color space : YUV
      Chroma subsampling : 4:2:0
      Bit depth : 8 bits
      Scan type : Progressive
      Bits/(Pixel*Frame) : 0.226
      Stream size : 321 MiB (88%)
      Color primaries : BT.709-5, BT.1361, IEC 61966-2-4, SMPTE RP177
      Transfer characteristics : BT.709-5, BT.1361
      Matrix coefficients : BT.709-5, BT.1361, IEC 61966-2-4 709, SMPTE RP177
   Audio #2921
      ID : 2921 (0xB69)
      Format : MPEG Audio
      Format version : Version 1
      Format profile : Layer 2
      Duration : 4mn 18s
      Bit rate mode : Constant
      Bit rate : 160 Kbps
      Channel(s) : 2 channels
      Sampling rate : 48.0 KHz
      Video delay : -1s 39ms
      Stream size : 4.93 MiB (1%)
   Audio #2922
      ID : 2922 (0xB6A)
      Format : MPEG Audio
      Format version : Version 1
      Format profile : Layer 2
      Duration : 4mn 18s
      Bit rate mode : Constant
      Bit rate : 160 Kbps
      Channel(s) : 2 channels
      Sampling rate : 48.0 KHz
      Video delay : -1s 69ms
      Stream size : 4.93 MiB (1%)
   Audio #2923
      ID : 2923 (0xB6B)
      Format : AC-3
      Format/Info : Audio Coding 3
      Mode extension : CM (complete main)
      Duration : 4mn 18s
      Bit rate mode : Constant
      Bit rate : 448 Kbps
      Channel(s) : 5 channels
      Channel positions : Front: L C R, Side: L R
      Sampling rate : 48.0 KHz
      Bit depth : 16 bits
      Video delay : -1s 147ms
      Stream size : 13.8 MiB (4%)

回覆 支持 反對

使用道具 檢舉

發表於 2010-12-7 17:36:31 | 顯示全部樓層
下載來用用看看
無損分割
好像不錯
回覆 支持 反對

使用道具 檢舉

發表於 2010-12-10 00:55:23 | 顯示全部樓層
想要做一个自制的影片很久了,尤其是少时影片。。。
谢谢咯
回覆 支持 反對

使用道具 檢舉

發表於 2010-12-11 01:02:56 | 顯示全部樓層
确实方便又好用...而且影片输出速度比TMPGEnc MPEG Editor要快一些
回覆 支持 反對

使用道具 檢舉

發表於 2010-12-14 17:35:52 | 顯示全部樓層
试用版的就纠结在开头的水印上了~不知道这个软件在网络上有没有破解版
回覆 支持 反對

使用道具 檢舉

發表於 2010-12-22 20:52:41 | 顯示全部樓層
不知為什麼,裁剪開頭的廣告後,用M3播放,srt的字幕居然掛不上。
沒裁廣告,就掛得上,整個不解?
回覆 支持 反對

使用道具 檢舉

發表於 2010-12-24 10:57:07 | 顯示全部樓層
好像很好用呢,先試試看效果了。
各位給這軟件的評價好像很好呢。
回覆 支持 反對

使用道具 檢舉

發表於 2010-12-31 14:07:36 | 顯示全部樓層
之前想找這種影片剪輯軟體
可是都不太會用
先來試試這套好了
回覆 支持 反對

使用道具 檢舉

發表於 2011-1-10 00:03:12 | 顯示全部樓層
的確是很好用,尤其HiHD用的格式網路上很多轉MPEG2的不能用
速度很快而且以我兩年多的配備還蠻順的,感謝分享
回覆 支持 反對

使用道具 檢舉

發表於 2011-1-13 16:55:57 | 顯示全部樓層
雖然切割與合併速度相當快
不過在切割與合併的地方都會跳格~
不知道是什麼原因
是我有什麼地方設定錯誤嗎?
回覆 支持 反對

使用道具 檢舉

發表於 2011-2-5 11:59:19 | 顯示全部樓層
多谢分享!
试过很好用!
回覆 支持 反對

使用道具 檢舉

發表於 2011-2-17 15:33:50 | 顯示全部樓層
已經更新到1.3.6版本
之前版本常有失敗中斷
到1.3.4版本已改善許多
回覆 支持 反對

使用道具 檢舉

發表於 2011-4-1 07:33:20 | 顯示全部樓層
本文章最後由 ramon301 於 2011-4-1 07:35 編輯

回覆 37# chj8818

試用幾次
好像內建顯示晶片的會當機:smart.exe發生錯誤,程式必須關閉
換有顯示卡的主機就不會當機
錄BS節目不能中途換台,否則無法OPEN
大致上效果比TS SPLITTER好
但較費時
我是先用SMRAT去廣告
再用SPLITTER去 1SEG 瘦身
回覆 支持 反對

使用道具 檢舉

發表於 2011-4-26 17:27:41 | 顯示全部樓層
多谢楼主分享啊,精彩!!参考一下 这是好软件
回覆 支持 反對

使用道具 檢舉

發表於 2011-4-29 10:26:17 | 顯示全部樓層
最近需要此類軟體
謝分享囉,來去試試

看合不合用,感思呢
回覆 支持 反對

使用道具 檢舉

您需要登錄後才可以回文 登錄 | 註冊

本版積分規則

熱門推薦

給自已一個幸福甜蜜的家【家訪中壢阿國兄part2】
給自已一個幸福甜蜜的家【
本文章最後由 小許 於 2016-10-23 22:19 編輯 其實這本篇文章
視聽室改造(聲學設計>>增設吸音器)20180621更新
視聽室改造(聲學設計>>增
視聽室完成已經有六七年了,當初是diy自己搞的 那時候也沒有太多
退伍後的人生第一套家庭劇院
退伍後的人生第一套家庭劇
劇院 我家是Klipsch RF-35主聲道 Klipsch RC35中置 Klipsch RS-5
JVC跌破眼睛重返DLP陣營發表4K DLP新投影機
JVC跌破眼睛重返DLP陣營發
向來以LCOS反射式液晶與超高對比聞名業界與發燒圈的JVC,近日突
家庭結構化佈線,影音網路化圖文介紹
家庭結構化佈線,影音網路
本文章最後由 chaokai 於 2011-5-30 07:24 編輯 這主題我在其

聯絡我們| 問題反映| 小黑屋| 手機版| Archiver|  本網站特別聘請 蔡家豪律師 為本站法律顧問

快速回覆 返回頂部 返回列表