查看: 651|回覆: 8
收起左側

[華語TV] 张学友 - 李香兰《国产凌凌漆》插曲高清剪辑(国粤双音轨)[MP4/1080P/124M]

[複製連結]
發表於 2016-12-16 23:34:00 | 顯示全部樓層 |閱讀模式

馬上註冊,結交更多好友,享用更多功能,讓你輕鬆玩轉社區。

您需要 登錄 才可以下載或查看,沒有帳號?註冊

x
0.jpg . x! n3 l7 B4 ?

- E% T% r) h# B2 z& n国产凌凌漆 这个片段里的星爷真是完美演绎了风流倜傥的典范啊,而今青春风采桀骜不再,再次重温,却多了几分感慨和缅怀...
7 \5 S. Y1 [5 u8 ?
! f6 F. }8 ^9 }   General5 r$ ^' {  {( f5 c1 |* o) X6 E/ G
      Complete name : 张学友 - 李香兰《国产凌凌漆》插曲高清剪辑(国粤双音轨).mp46 O6 G+ b" H& W5 Z! e, Z
      Format : MPEG-4
; u% k$ O( M0 X( e: Q, ^. M9 ~      Format profile : Base Media
2 X0 H* n2 w+ z2 Q7 u      Codec ID : isom' k4 \, H% ]4 s, D$ R  T  K5 N
      File size : 121 MiB
9 M( I6 l) k9 ]% d: s7 K      Duration : 1mn 55s9 @6 U  X3 @* Y
      Overall bit rate : 8 778 Kbps3 Y( p1 N. g3 A! Y5 h
      Encoded date : UTC 1970-01-01 00:00:007 I% |' M! u; ?3 Q( d6 T! g0 Z
      Tagged date : UTC 1970-01-01 00:00:00! m# M& }9 X' i' f# D& i) J
   Video #1
0 Y8 Q( M3 K9 D0 Z      ID : 1
4 i+ l4 d0 E4 h1 w7 Q# X5 k# `( `      Format : AVC
6 F; Z' |% \* t( ~3 X      Format/Info : Advanced Video Codec7 T. M" z3 k" f3 T
      Format profile : High@L5' q9 G* s9 h' y7 A" r0 r  C) r1 W  A
      Format settings, CABAC : Yes1 W) U9 P6 k+ ]) J5 |. `7 r& T  R2 _" |
      Format settings, ReFrames : 8 frames! ?* m8 u8 w" C; U
      Codec ID : avc1- Y" K6 h) j2 Q& Z2 }/ c5 _
      Codec ID/Info : Advanced Video Coding& X  I  M4 v3 f
      Duration : 1mn 55s
# b7 U9 I5 h! G) y3 }8 V& D0 L1 g      Bit rate : 8 002 Kbps- [$ q9 F  N% V4 s) O# d/ A
      Width : 1 920 pixels
+ v7 O! p5 r! ^# W3 x! g3 w1 @      Height : 1 080 pixels
( U+ y( I) q% q, |" H, I      Display aspect ratio : 16:9
' X9 C2 g2 G% J5 f! i; g  X0 [  y      Frame rate mode : Constant1 M6 O# `# [# d6 j
      Frame rate : 30.000 fps
4 R  L: t9 w0 X, @6 y% p3 l      Color space : YUV
+ i. x9 c  t7 N8 \0 a& {* l$ S  [      Chroma subsampling : 4:2:0
- g7 Y' E. ]$ |5 n* g* Q/ _      Bit depth : 8 bits
0 K, h& Z, G" |. ]- S      Scan type : Progressive
2 N7 y8 P! p2 l0 j- t1 H) Q      Bits/(Pixel*Frame) : 0.1299 F4 t; X7 p( }7 e8 }# D- a9 w
      Stream size : 110 MiB (91%)
0 @! Z# X7 A( E0 n      Language : English' j: r, u; [1 ^9 E! P, X
      Encoded date : UTC 1970-01-01 00:00:00
0 C7 ?2 _$ W( z      Tagged date : UTC 1970-01-01 00:00:00; ^* N: ^1 B8 Y9 W$ a; ^
   Audio #2
7 S, ^! w; ]$ D      ID : 2. P; J$ p3 S8 B
      Format : AC-3
6 D3 h/ z3 a' o; _4 }8 B$ \      Format/Info : Audio Coding 37 O% |  b- ^# @* r! I5 }6 R0 i1 o
      Mode extension : CM (complete main)$ L  t; P2 T& T* V4 z
      Format settings, Endianness : Big  o3 W: e9 |2 O/ ?
      Codec ID : ac-3) W, b3 w: v- d0 k1 D- ^# n+ W8 f
      Duration : 1mn 55s7 l, w$ w3 i$ A$ o/ X5 t% v
      Source duration : 1mn 55s
8 |& x: s2 I" E      Bit rate mode : Constant& P2 N( B6 e. m( {
      Bit rate : 384 Kbps
; j1 C4 n) A5 f; F( p+ I      Channel(s) : 6 channels
) u3 t9 g' ?8 H- Z* g      Channel positions : Front: L C R, Side: L R, LFE- R6 U# G( m: W4 W6 m- w
      Sampling rate : 48.0 KHz
" a% d" L0 N5 v, e2 q$ v      Bit depth : 16 bits  B2 V& i: y7 w0 N1 B( w
      Compression mode : Lossy* J5 n; l7 C5 ?, a2 a  v
      Stream size : 5.30 MiB (4%)
+ s& b+ {8 G# z" V2 ?' F- I      Source stream size : 5.30 MiB (4%)8 }9 Y$ Y! N: ?0 q5 v0 t; ~
      Language : English- T- `  X" [1 f0 X3 N! }9 |
      Encoded date : UTC 1970-01-01 00:00:00- E- I, U( p- _- {) I5 q
      Tagged date : UTC 1970-01-01 00:00:00, u" R4 ~+ k3 A2 Z4 j1 {% s
      mdhd_Duration : 1157417 E1 P& K; n) }" X/ V
   Audio #3
+ O3 r  w& b) X+ L1 a      ID : 3/ S3 T+ R# ^, H8 ~5 z+ Q& H, ?2 g: z5 B
      Format : AC-3
3 a( W" ?# q+ T4 x# n3 T/ L5 M0 S4 H      Format/Info : Audio Coding 3
- {5 A. u$ I- x7 I2 B      Mode extension : CM (complete main)
; A* ?6 [0 W: `6 ]) C) [0 M# k$ X      Format settings, Endianness : Big. ~4 ^: I! v* o, f) ^- T
      Codec ID : ac-3/ {0 ]% o* N# N( t
      Duration : 1mn 55s
$ t# g! k4 m( Y# x      Source duration : 1mn 55s
  n, [, |& C7 D8 ?      Bit rate mode : Constant0 v; u2 i" V6 A* b  a
      Bit rate : 384 Kbps
: g# a7 \% u/ H9 j" z- y6 @      Channel(s) : 6 channels
0 _0 d+ U* L9 }      Channel positions : Front: L C R, Side: L R, LFE+ c5 Q% m1 J) a  D" e! k
      Sampling rate : 48.0 KHz" G: j4 h6 V; b1 }( l; d$ i) A* \
      Bit depth : 16 bits$ b4 l# F" e9 K( ]+ ~) U1 X
      Compression mode : Lossy
6 C# d, K) ]. l2 A, S      Stream size : 5.30 MiB (4%)
. j" n- G* b, `4 B7 i) x. |2 Q- U      Source stream size : 5.30 MiB (4%)
& y" i; D5 Y" U5 c* \      Language : English: C% d! L5 C' D! ~: s7 a
      Encoded date : UTC 1970-01-01 00:00:00
1 I. Y7 y  {4 ?  ~$ B# J1 [; s5 G      Tagged date : UTC 1970-01-01 00:00:00
( A4 v  y; a( {$ H      mdhd_Duration : 115741
1 W6 ^+ @! n" S3 ~
9 k* ~  ~9 u) l" d 1.JPG
0 u" ^0 ^: Q& t' L 2.JPG
) @$ x5 I& p9 Q+ d% D9 ]8 M( i 3.JPG
) ~# t+ b  S% f: l6 Q 4.JPG
6 U! |0 s* Z" O0 T 5.JPG - F8 c  ]9 n0 ?- D
/ v8 P' g  H% L0 X. Y
链接:http://pan.baidu.com/s/1mhYyLGO# n: P; f* ?+ |+ ?
密码:lz1k
發表於 2016-12-17 00:23:06 | 顯示全部樓層
蠻喜歡這首歌的7 H8 }& U2 p( F
周爺電影中都會有首歌
9 ]9 }1 W3 [1 @; v" C6 A- L$ q" H這首是其中我蠻喜歡的......又讓我想起大話西遊的"一生所愛"
1 |- u; n' H, d8 ]5 j. f* A來去再聽歌3 Q" }# C" F4 p) @
感謝分享
) [6 u, j2 O: E
回覆 支持 反對

使用道具 舉報

發表於 2016-12-20 22:32:45 | 顯示全部樓層
很喜歡的電影 也是很喜歡的歌 感謝版大辛苦分享
回覆 支持 反對

使用道具 舉報

發表於 2016-12-27 22:53:26 | 顯示全部樓層
楼主厉害 这个居然都有剪辑!
回覆 支持 反對

使用道具 舉報

發表於 2016-12-28 13:43:41 | 顯示全部樓層
谢谢分享
回覆 支持 反對

使用道具 舉報

發表於 2017-1-2 09:13:33 | 顯示全部樓層
哇 这个绝对经典呀6 |9 V! w% Y9 i: M
我来看看 !!
回覆 支持 反對

使用道具 舉報

發表於 2017-1-30 22:06:15 | 顯示全部樓層
经典啊~张学友的歌一直很好听. l5 `' ~2 Q/ O2 Z) @$ D& s
来看看 !!) _' V1 Z. G2 S' o9 l% S
谢谢
回覆 支持 反對

使用道具 舉報

發表於 2017-3-18 07:07:52 | 顯示全部樓層
秋意濃的粵語版 好聽的歌永不會被遺忘
回覆 支持 反對

使用道具 舉報

發表於 2018-4-16 03:31:00 | 顯示全部樓層
! S7 _7 {- y- I' I6 g3 i! W- {
很喜歡的電影 也是很喜歡的歌 感謝版大辛苦分享
回覆 支持 反對

使用道具 舉報

您需要登錄後才可以回文 登錄 | 註冊

本版積分規則

熱門推薦

[敗家心得]Sony a1智慧聯網電視分享
[敗家心得]Sony a1智慧聯
先說這篇心得文勸敗成分很高 我們家對於電視的需求算是很晚才接
頻響之惑--秦朝 BQ3115D
頻響之惑--秦朝 BQ3115D
Q:從秦朝音響論壇(http://www.ycqin.com/thread-1153-1-1.html)
我的小房間家庭劇院 >"<
我的小房間家庭劇院 >"<
本文章最後由 jask 於 2016-2-27 10:11 編輯 更新我目前用的
MK S150.tannoy主動.玩十年的.音響安裝介紹
MK S150.tannoy主動.玩十
本文章最後由 layaten 於 2017-11-1 09:20 編輯 MK S150劇院:
BenQ W1700與我的"野台戲+鋼管"4K劇院
BenQ W1700與我的"野台戲+
為什麼說是"野台戲"呢? 通常的家庭劇院布幕不是固定框就是升降式

聯絡我們| 問題反映| 小黑屋| 手機版| Archiver|  本網站特別聘請 蔡家豪律師 為本站法律顧問

快速回覆 返回頂部 返回列表