查看: 837|回覆: 8
收起左側

[華語TV] 张学友 - 李香兰《国产凌凌漆》插曲高清剪辑(国粤双音轨)[MP4/1080P/124M]

[複製連結]
發表於 2016-12-16 23:34:00 | 顯示全部樓層 |閱讀模式

馬上註冊,結交更多好友,享用更多功能,讓你輕鬆玩轉社區。

您需要 登錄 才可以下載或查看,沒有帳號?註冊

x
0.jpg 0 C8 k2 C. x8 t' N* {2 ~. o

/ i1 R% Y) G+ ]( j国产凌凌漆 这个片段里的星爷真是完美演绎了风流倜傥的典范啊,而今青春风采桀骜不再,再次重温,却多了几分感慨和缅怀...& V* z, a2 ?: {( Y, _; w' b  u. T
2 C; n8 y9 p4 ]8 ]4 V
   General. w! f3 V" ^- g
      Complete name : 张学友 - 李香兰《国产凌凌漆》插曲高清剪辑(国粤双音轨).mp43 Z2 b' _  q: T/ W8 T4 a0 ^% y
      Format : MPEG-4
8 R( N2 s8 K  ]: }% H' o. B/ {3 V      Format profile : Base Media
, d/ v! t$ w, `  ^8 t0 F      Codec ID : isom1 M! j/ m' I- Q* A9 U
      File size : 121 MiB& Q+ [. D# \8 v0 V
      Duration : 1mn 55s
5 I/ X  B" M: z6 {      Overall bit rate : 8 778 Kbps" r  L( z% h( K$ h  l
      Encoded date : UTC 1970-01-01 00:00:00
) y0 Q  H; C/ M9 w      Tagged date : UTC 1970-01-01 00:00:00
$ b. T  @; T+ ?4 k5 m4 J  s   Video #1
+ v8 J/ `3 V1 i+ J1 o- u" _' X: k  P+ k      ID : 1' E' D/ m, k1 u) g, v- H
      Format : AVC) ]- |2 n% U. h( r
      Format/Info : Advanced Video Codec- }; G+ {- ?+ S3 X
      Format profile : High@L5
9 X! g7 F+ F* ?4 I8 ~      Format settings, CABAC : Yes& d8 p- z! G* D$ s8 X- m: X( Y0 s9 }
      Format settings, ReFrames : 8 frames
9 K+ M. U; p/ c+ _: t( x7 g      Codec ID : avc1
2 {' Q- O$ \3 Q4 Y+ ]  f! j      Codec ID/Info : Advanced Video Coding
, j3 _0 g* }3 U      Duration : 1mn 55s7 e% a& m7 d  ~+ k
      Bit rate : 8 002 Kbps
- q$ c5 l3 |7 X2 I      Width : 1 920 pixels
( G8 {0 B1 q7 t' _5 ?( g$ S9 g      Height : 1 080 pixels' m) K6 a' C$ C* a
      Display aspect ratio : 16:9; H0 Y/ P4 _! ?; I
      Frame rate mode : Constant
; n* F* ~: Y6 z- v5 o      Frame rate : 30.000 fps0 K) n  r3 X- W; i! k  v, Q
      Color space : YUV* y9 _( V$ h1 h
      Chroma subsampling : 4:2:06 R! Y/ s7 U1 r7 s: R# L0 a- ?( j
      Bit depth : 8 bits
0 ^5 y# J, O9 |* k5 V! Q* y      Scan type : Progressive: p5 K  E5 i6 I+ E7 S. e* C$ o/ C% C
      Bits/(Pixel*Frame) : 0.129
. H! G; G" w" c) _) F( E) s; q      Stream size : 110 MiB (91%)
0 h% n5 `% A  A0 _% i( M      Language : English
. a: }  v7 B# Q      Encoded date : UTC 1970-01-01 00:00:00: ?3 C! c* p& ]. A/ K( l
      Tagged date : UTC 1970-01-01 00:00:00
( ^! B2 N8 u0 c4 V; n   Audio #2
* ^( k  U& i  V      ID : 26 }& U: ^7 y- w/ `
      Format : AC-31 s7 [- X9 x: V" Y
      Format/Info : Audio Coding 3
: D7 F5 T  S& s3 b      Mode extension : CM (complete main)
6 i- R7 C5 K5 x3 d- h$ t9 C8 U- ]6 ?      Format settings, Endianness : Big
  O5 [2 S) M7 l" b% b+ s      Codec ID : ac-3
: O  }1 L8 I3 ?1 K) x8 D( A      Duration : 1mn 55s8 c3 ?! R2 e: E3 D
      Source duration : 1mn 55s
8 o* O# y9 f1 \) O      Bit rate mode : Constant
; R4 D& z4 v: J% n" p# c      Bit rate : 384 Kbps
& I7 I: W( N" j      Channel(s) : 6 channels
! w- z: r" w5 Q2 \" T8 r      Channel positions : Front: L C R, Side: L R, LFE
% @2 B8 a2 ~& R* ?      Sampling rate : 48.0 KHz
! h' ~3 H4 _. H3 s7 l  d# ~      Bit depth : 16 bits% |5 e$ }$ P7 p  u
      Compression mode : Lossy/ [9 k! Z3 Q" {
      Stream size : 5.30 MiB (4%)8 H7 z* _" U+ m; D" \  O* S
      Source stream size : 5.30 MiB (4%)
5 [  ^! |1 @% j' u      Language : English
1 g' C5 `( a( D" E6 ~      Encoded date : UTC 1970-01-01 00:00:00
* m  k; S+ s' Y1 @" l9 b2 I      Tagged date : UTC 1970-01-01 00:00:00" b: C! N1 S6 m4 ]2 Q
      mdhd_Duration : 115741
; T( B- A4 s& a# V   Audio #3
" ]) @8 ~2 j/ L. \7 o8 l2 q3 |      ID : 3
1 p. C% C4 o: ]2 i' t      Format : AC-31 i2 z& O2 Z# V3 |9 B
      Format/Info : Audio Coding 3
# E3 s( P" E+ U, }6 L3 Q      Mode extension : CM (complete main)) r; G  U1 Y9 P. X/ j( s  ?! X
      Format settings, Endianness : Big
5 M' O: }7 D* I5 D      Codec ID : ac-3
( W; S& G7 s$ `      Duration : 1mn 55s- r  n& H9 U9 Z
      Source duration : 1mn 55s
0 z8 @- l+ z7 O* n; @7 p      Bit rate mode : Constant
! F3 j8 v; x7 n      Bit rate : 384 Kbps* `2 m0 @2 S4 ~! Q
      Channel(s) : 6 channels& s) H$ C' J% v) I1 I& \
      Channel positions : Front: L C R, Side: L R, LFE( ^' w7 g$ i/ z8 Z3 b
      Sampling rate : 48.0 KHz8 j$ E7 p- P9 g: F' K
      Bit depth : 16 bits
- B$ S$ K6 Y: h, t1 m      Compression mode : Lossy2 a$ [' ~& t2 S* P' z
      Stream size : 5.30 MiB (4%)
1 w% u# e2 I# _* w% y) S: a      Source stream size : 5.30 MiB (4%)
9 r' [- v' `9 t0 F& K      Language : English" D+ W- @" R$ ]! \
      Encoded date : UTC 1970-01-01 00:00:009 D* o& n0 b) K4 Y8 S
      Tagged date : UTC 1970-01-01 00:00:00
2 k! Z, V) E1 K; ^) w  o  F" E      mdhd_Duration : 115741
2 B% b1 p. ^  P4 o
- l4 }- R8 t. Q 1.JPG
; d1 w: I: R4 \ 2.JPG 8 c6 z9 U$ m- D. X
3.JPG 2 G; Z# k5 a/ m) N
4.JPG
; S9 }3 ^& B0 K& d8 r7 C 5.JPG 1 H, u1 |) G1 B# M1 @

; Y+ t3 Z2 ]( |& b, L$ F9 r. S链接:http://pan.baidu.com/s/1mhYyLGO/ W, z! J7 M7 m) _* J$ I
密码:lz1k
發表於 2016-12-17 00:23:06 | 顯示全部樓層
蠻喜歡這首歌的
( Y8 t; A, W; i周爺電影中都會有首歌* U  o# D- u2 S
這首是其中我蠻喜歡的......又讓我想起大話西遊的"一生所愛"
& H+ [0 T( Q# H$ T% Y( @4 e) {4 k$ j) M來去再聽歌
& w6 q2 d8 M2 A感謝分享
5 }: F; v) a& s: @9 V; D
回覆 支持 反對

使用道具 檢舉

發表於 2016-12-20 22:32:45 | 顯示全部樓層
很喜歡的電影 也是很喜歡的歌 感謝版大辛苦分享
回覆 支持 反對

使用道具 檢舉

發表於 2016-12-27 22:53:26 | 顯示全部樓層
楼主厉害 这个居然都有剪辑!
回覆 支持 反對

使用道具 檢舉

發表於 2016-12-28 13:43:41 | 顯示全部樓層
谢谢分享
回覆 支持 反對

使用道具 檢舉

發表於 2017-1-2 09:13:33 | 顯示全部樓層
哇 这个绝对经典呀2 k! R! k- D, P" h& O. S
我来看看 !!
回覆 支持 反對

使用道具 檢舉

發表於 2017-1-30 22:06:15 | 顯示全部樓層
经典啊~张学友的歌一直很好听
$ D, e1 l% |' ?来看看 !!
2 c7 Y% X8 {* @2 l5 K谢谢
回覆 支持 反對

使用道具 檢舉

發表於 2017-3-18 07:07:52 | 顯示全部樓層
秋意濃的粵語版 好聽的歌永不會被遺忘
回覆 支持 反對

使用道具 檢舉

發表於 2018-4-16 03:31:00 | 顯示全部樓層

3 [) c) i4 [3 y2 ^" H' M3 t很喜歡的電影 也是很喜歡的歌 感謝版大辛苦分享
回覆 支持 反對

使用道具 檢舉

您需要登錄後才可以回文 登錄 | 註冊

再次提醒,當您點擊發表回覆,視同您已經明白本討論區的版規,如不明白請先參見各版版規。

熱門推薦

再現導演傳奇-【BENQ-W1700粉墨登場】
再現導演傳奇-【BENQ-W170
4K元年的2017,相信消費者期待的是一台令眼睛為之一亮的機器。從
Panasonic 50EX750改電源線問題
Panasonic 50EX750改電源
Panasonic 50EX750改電源線問題 請問圖中白色插在那可找到
沙發靠牆-環繞喇叭位置
沙發靠牆-環繞喇叭位置
客廳沙發是靠牆的,寬度是330cm,高度是230cm, 目前是用圖中
小試身手就可以越級打怪-秦朝3115D
小試身手就可以越級打怪-
音響其實是比較級的東西,早期剛開始接觸沒幾年的時候都會有很比
電工發燒日記【家訪桃園藍綾兄】
電工發燒日記【家訪桃園藍
PART-1 幾年前小許對於劇院根本不在乎,認為劇院.. 跑跑audyss

聯絡我們| 問題反映| 小黑屋| 手機版| Archiver|  本網站特別聘請 蔡家豪律師 為本站法律顧問

快速回覆 返回頂部 返回列表