查看: 747|回覆: 8
收起左側

[華語TV] 张学友 - 李香兰《国产凌凌漆》插曲高清剪辑(国粤双音轨)[MP4/1080P/124M]

[複製連結]
發表於 2016-12-16 23:34:00 | 顯示全部樓層 |閱讀模式

馬上註冊,結交更多好友,享用更多功能,讓你輕鬆玩轉社區。

您需要 登錄 才可以下載或查看,沒有帳號?註冊

x
0.jpg
  l7 b9 n% l4 {4 K4 B" F
: K/ H; j  f8 s6 g4 t% f国产凌凌漆 这个片段里的星爷真是完美演绎了风流倜傥的典范啊,而今青春风采桀骜不再,再次重温,却多了几分感慨和缅怀...
1 `1 L5 K4 `! m& [; J7 R" Q. r+ B+ p. w- u: C6 F8 u+ B  \
   General
' ~% h# ^6 `/ g3 p; U! N: }1 i      Complete name : 张学友 - 李香兰《国产凌凌漆》插曲高清剪辑(国粤双音轨).mp4
! g& F. h7 w6 n& h. I0 n, G% [6 c$ i& ^      Format : MPEG-4
& J+ W1 W# y( g) H9 P      Format profile : Base Media
# ~: E; T5 z9 V; C3 p      Codec ID : isom
1 l( h6 \/ X8 w/ _/ P      File size : 121 MiB# I4 A% f0 W! y0 I
      Duration : 1mn 55s, w4 h" `+ ?) y% w7 ~1 e
      Overall bit rate : 8 778 Kbps
+ F. q( H% p3 U! g' l! \/ Y, w5 M$ S      Encoded date : UTC 1970-01-01 00:00:00/ Y4 k4 W" S+ N2 O7 _
      Tagged date : UTC 1970-01-01 00:00:00
4 Q2 ^+ c' D9 w' `; R& f   Video #1- ]2 Y: J" F% V9 d: r5 e/ D+ o8 V3 i
      ID : 1( X1 Q0 g3 r. |* y6 G
      Format : AVC
9 E; \1 y, n  Q+ \9 S      Format/Info : Advanced Video Codec0 T$ l( k3 _$ J) C
      Format profile : High@L5
# I, g/ S9 W/ P8 X0 b2 J      Format settings, CABAC : Yes2 R  ^. E4 r/ E+ c. n* a
      Format settings, ReFrames : 8 frames. X/ {( j8 }0 u! x2 d9 {" t1 F, I
      Codec ID : avc1
( ?1 g) E6 A' y      Codec ID/Info : Advanced Video Coding: ~5 W4 m8 D6 l. [
      Duration : 1mn 55s9 U" A$ F6 P5 z/ I; S! k
      Bit rate : 8 002 Kbps
: F- [: ]+ ]/ e# H7 A+ Y      Width : 1 920 pixels
- |. y, R! ^. z% |% q7 _6 f% o      Height : 1 080 pixels
3 p5 ?$ v1 D3 ^' V6 e  L! i      Display aspect ratio : 16:90 `5 p, B1 l* a: q* `; y
      Frame rate mode : Constant2 i* A: Q9 F! `
      Frame rate : 30.000 fps' B* U; u6 o9 E0 \- z8 T0 k( o& p
      Color space : YUV3 t0 L/ T% Z6 G: C; x/ C/ v. D
      Chroma subsampling : 4:2:0: E' Z6 t9 t% N
      Bit depth : 8 bits
5 k+ M0 I( \# w9 |' z      Scan type : Progressive3 B6 U- D& b# |  a7 W, i
      Bits/(Pixel*Frame) : 0.129! X1 E, t& i; K8 }
      Stream size : 110 MiB (91%)
, C6 X- ?- y$ ^1 l- A0 C      Language : English
5 |5 H9 _( T& I! o% ^% h( \      Encoded date : UTC 1970-01-01 00:00:00
  v; ~) b1 J8 c1 x; f% [      Tagged date : UTC 1970-01-01 00:00:00( N  o& k' c; p+ e* w& n+ I
   Audio #2) t' [- B; B8 u$ f9 g
      ID : 26 b; N2 X6 u$ R
      Format : AC-3+ Z9 ?4 y* m! g9 u  d
      Format/Info : Audio Coding 3- M" J4 J& x9 L  h0 b$ T
      Mode extension : CM (complete main)% S* B2 e4 E# j) p1 C& F8 F
      Format settings, Endianness : Big/ ?) N! ]" }  Z* V
      Codec ID : ac-3! B+ R5 A6 y! o1 \$ c
      Duration : 1mn 55s
5 F/ U' m$ M+ ^, `8 {; P( f      Source duration : 1mn 55s9 g! r' W. u7 I" p
      Bit rate mode : Constant
0 M% j  P* z+ V8 K  U6 b8 w8 `      Bit rate : 384 Kbps( {( ^1 @. |8 U% w! `
      Channel(s) : 6 channels
. M  T- |% v3 Y  a' o      Channel positions : Front: L C R, Side: L R, LFE
' z) `/ ]$ z+ Q3 u" F      Sampling rate : 48.0 KHz" v5 Q$ n' A5 {+ U# p& J
      Bit depth : 16 bits
$ E* q; T' Q+ R4 `% {      Compression mode : Lossy* C1 p( c2 t  t8 A
      Stream size : 5.30 MiB (4%)
' F  a) N1 F" T: ^% x      Source stream size : 5.30 MiB (4%)4 {1 T8 C4 @6 Q6 D9 G6 N
      Language : English
: L- ], q; `9 v3 v  V      Encoded date : UTC 1970-01-01 00:00:00
1 K; f) M& J/ P& [/ m      Tagged date : UTC 1970-01-01 00:00:00
, ?8 C' h8 y$ e9 O      mdhd_Duration : 115741# p" r% s! Q4 G% _
   Audio #36 o- u# p9 f! \5 g
      ID : 3' m9 ^$ A* ~  W: f$ L. F
      Format : AC-3, \, ~6 g' o6 ]2 g1 {1 p
      Format/Info : Audio Coding 3* n, Z1 q' X2 a9 m2 R$ G( q
      Mode extension : CM (complete main)8 n1 Y1 E9 ?" P. b3 z  G
      Format settings, Endianness : Big$ m' q, b' Q1 V7 `# B
      Codec ID : ac-3& @# K+ m1 c+ p6 I6 ]
      Duration : 1mn 55s
7 e7 ~/ b7 R9 b' _6 y3 g8 y      Source duration : 1mn 55s
8 x, w) d& h6 f) Y) _9 Z' U6 o2 j      Bit rate mode : Constant: t3 r: K8 K* \* I/ @3 z' h6 c
      Bit rate : 384 Kbps
  o+ r! V! K$ Q      Channel(s) : 6 channels
3 f2 \7 W$ c/ F+ e: z6 J      Channel positions : Front: L C R, Side: L R, LFE/ F7 g# B; N/ }5 g8 t, g
      Sampling rate : 48.0 KHz
2 v- [6 j2 f+ r1 c; o4 ~      Bit depth : 16 bits
% U  k; ^- C7 i3 p3 z* ]      Compression mode : Lossy( f4 _0 i# _3 s: w" R
      Stream size : 5.30 MiB (4%)
" ^; S' E3 n; U/ s# C      Source stream size : 5.30 MiB (4%)
$ q1 _6 q3 w0 Q3 j& `& e      Language : English7 v- @9 _  \8 i7 p. H; B" B5 w
      Encoded date : UTC 1970-01-01 00:00:008 z, i' D5 z6 v' z
      Tagged date : UTC 1970-01-01 00:00:00
# g& |( w3 ?. v4 M) J" A7 g      mdhd_Duration : 115741
+ ~2 q' `1 }- Z5 `% }. K' ?# Q  o9 ?: I% |3 d( y1 W5 ^
1.JPG # N4 w5 M+ K. A7 V8 B* x8 g
2.JPG
% s2 U3 g; l3 h+ j4 X 3.JPG ( `" h) s  y" X- X6 u9 x1 U
4.JPG 1 }$ i  y" N) e1 e3 d" c
5.JPG
1 `- r5 v3 |3 {$ Z, K; f
$ K& X# e0 m" i4 q' p* V- g( z链接:http://pan.baidu.com/s/1mhYyLGO4 h2 V9 c; z% l. W3 a& L
密码:lz1k
發表於 2016-12-17 00:23:06 | 顯示全部樓層
蠻喜歡這首歌的
- U# W5 K3 t4 I; m周爺電影中都會有首歌; m  |# [; r- b0 k* E, e
這首是其中我蠻喜歡的......又讓我想起大話西遊的"一生所愛"; b0 g9 V: F- L! i9 b" F
來去再聽歌
4 z$ p; ^- U; r2 D) w- L+ a感謝分享
& l5 d9 O" F4 O; n! x
回覆 支持 反對

使用道具 檢舉

發表於 2016-12-20 22:32:45 | 顯示全部樓層
很喜歡的電影 也是很喜歡的歌 感謝版大辛苦分享
回覆 支持 反對

使用道具 檢舉

發表於 2016-12-27 22:53:26 | 顯示全部樓層
楼主厉害 这个居然都有剪辑!
回覆 支持 反對

使用道具 檢舉

發表於 2016-12-28 13:43:41 | 顯示全部樓層
谢谢分享
回覆 支持 反對

使用道具 檢舉

發表於 2017-1-2 09:13:33 | 顯示全部樓層
哇 这个绝对经典呀
. A- x3 I0 T: A& w我来看看 !!
回覆 支持 反對

使用道具 檢舉

發表於 2017-1-30 22:06:15 | 顯示全部樓層
经典啊~张学友的歌一直很好听
0 E; O/ ]* [0 w' d! A( t2 v% k来看看 !!/ B$ I- r' [1 u! E2 v
谢谢
回覆 支持 反對

使用道具 檢舉

發表於 2017-3-18 07:07:52 | 顯示全部樓層
秋意濃的粵語版 好聽的歌永不會被遺忘
回覆 支持 反對

使用道具 檢舉

發表於 2018-4-16 03:31:00 | 顯示全部樓層

) G0 w& J1 |1 a0 n9 z很喜歡的電影 也是很喜歡的歌 感謝版大辛苦分享
回覆 支持 反對

使用道具 檢舉

您需要登錄後才可以回文 登錄 | 註冊

本版積分規則

熱門推薦

帶動4K經濟就是要靠這一味,韓國4K UHD頻道強力放送(下載-少女時代L.A演出現場)
帶動4K經濟就是要靠這一味
目前韓國已經擁有5個UHD超高清頻道,分別是:UMAX, CJ E&M
Optoma奧圖碼推出輕巧型超短焦投影組合 滿足全方位投影應用需求
Optoma奧圖碼推出輕巧型超
全球投影機專業品牌Optoma奧圖碼,今日正式宣布推出輕巧型超短
點亮優雅音樂生活     360度釋放透明系音場  Sony LSPX – S1 無線玻璃共振揚聲器清亮上市
點亮優雅音樂生活 360
對於美好聲音的樣貌,Sony 始終致力帶來最創新優質的詮釋,為
給自已一個幸福甜蜜的家【家訪中壢阿國兄part2】
給自已一個幸福甜蜜的家【
本文章最後由 小許 於 2016-10-23 22:19 編輯 其實這本篇文章
視聽室改造(聲學設計>>增設吸音器)20180621更新
視聽室改造(聲學設計>>增
視聽室完成已經有六七年了,當初是diy自己搞的 那時候也沒有太多

聯絡我們| 問題反映| 小黑屋| 手機版| Archiver|  本網站特別聘請 蔡家豪律師 為本站法律顧問

快速回覆 返回頂部 返回列表