查看: 23503|回覆: 338
收起左側

[韓國MV] T-ara - Number 9 [繁中特效字幕] [1080p] [mp4] [373M/百度]

[複製連結]
發表於 2013-10-11 15:09:04 | 顯示全部樓層 |閱讀模式

馬上註冊,結交更多好友,享用更多功能,讓你輕鬆玩轉社區。

您需要 登錄 才可以下載或查看,沒有帳號?註冊

x
T妞穿旗袍身材好曼妙喔<3% t. f, }7 r  b! }: I& B+ c
話說No.9是什麼意思阿...不懂?! J0 c1 P/ P+ ?9 T: j- H" n8 R" p
I'm in the duck...in the duck...呱呱XD
+ P7 ~5 b: \' q, ~/ W6 `" `; W9 @
3 U+ r) |3 ~% u, T  D
[youtube]Kn8KKq60Koo[/youtube]
& c/ m# C! y; R1 o& T3 W0 o( M) p4 c! \, h
2 u- O) _1 C3 i# O$ X
$ m0 i( i6 L( N$ B$ c4 C1 A

0 u+ B9 r1 g$ f
' [$ c) k4 A3 g5 [  w' c2 l- Q9 z  y$ E" S3 s2 @; a
$ O& n! @& S& a7 r

: a; J" h* B4 y* \+ [. F' b
! P) F* T/ {3 _0 B
  |2 i! w, g5 `8 [, t
D:\T-ara - Number 9 [繁中特效字幕] [1080p] [pureland].mp41 z& Q, b: D' f5 Y5 q( j, w
  General+ M# o7 q: H. r# D. D6 m
    Complete name : D:\T-ara - Number 9 [繁中特效字幕] [1080p] [pureland].mp46 P0 K6 F/ D7 V) z
    Format : MPEG-4
+ r; p, {! g- Y    Format profile : Base Media* h$ [8 I! Q# G  Y- ^; G( v
    Codec ID : isom
* Z0 s& c$ L4 r3 u# n- Z0 q: j) g    File size : 373 MiB
( ^% }0 ?+ y4 B# F    Duration : 3mn 53s" T6 S5 D" r3 [# X
    Overall bit rate mode : Variable
! e; ]- _% p4 Y$ I7 B: O8 j0 E    Overall bit rate : 13.4 Mbps4 v9 X5 L5 h" d
    Encoded date : UTC 2013-10-11 05:19:25
/ R* T  m; o; V5 Y) U6 Z! _" o    Tagged date : UTC 2013-10-11 05:19:25
9 j; E8 F5 b& ^, k8 Z* S  Video #1' P& c9 y) e, d2 v$ K8 ]
    ID : 1
* ]" G1 s8 A2 Q( t( z* g  t$ e    Format : AVC
( L6 N3 d: W/ d    Format/Info : Advanced Video Codec3 p% c! C; V* E0 d
    Format profile : Main@L4.09 d$ ~/ F; |! ~
    Format settings, CABAC : Yes% Q& b, z! W% L6 n5 W9 L5 V
    Format settings, ReFrames : 2 frames
& @3 z4 w+ z, R* c2 m" Q' c1 O    Format settings, GOP : M=2, N=291 W6 C" e) Z4 I" v& ?
    Codec ID : avc1
2 e. Y; ?1 Z& z0 c: `$ W0 L    Codec ID/Info : Advanced Video Coding
% l2 P0 x" H0 F- M7 R7 O4 i    Duration : 3mn 53s
- L9 X8 h4 e5 K# W: [" E5 {    Bit rate : 13.1 Mbps' f+ f: G$ M9 ~+ z: x  v& H
    Maximum bit rate : 19.7 Mbps1 [" Y+ A: b! X# B0 E' ?9 k
    Width : 1 920 pixels
5 R; B2 J5 o9 _4 a0 l    Height : 1 080 pixels
) m$ \6 @8 B$ s" g4 L/ Z    Display aspect ratio : 16:91 z( f6 C; a% O0 `  Z! [# m, Z
    Frame rate mode : Variable: t* ~) a$ Z( w8 y
    Frame rate : 29.970 fps9 B3 w' Z5 g6 `9 J4 E1 n
    Minimum frame rate : 29.940 fps4 U( I- M. l( e
    Maximum frame rate : 29.970 fps4 b) n- W' D( u6 D
    Color space : YUV
% `5 g; i/ p, @" ], C# N    Chroma subsampling : 4:2:0
( z- X6 f- @+ q, t, T% k    Bit depth : 8 bits! A- @5 E8 R* i' f1 ]% C; N
    Scan type : Progressive( \5 N, l' I7 b- \$ |! N2 C% {. X
    Bits/(Pixel*Frame) : 0.210
5 B% v2 @1 q! Z: d    Stream size : 364 MiB (98%)8 f% u7 M4 F; m2 A* P- c; _6 o
    Language : English: k$ D8 i4 S) x5 z) s* u9 `
    Encoded date : UTC 2013-10-11 05:17:23
( `( v3 g' T# @9 R0 e+ I+ U    Tagged date : UTC 2013-10-11 05:19:25
7 \7 y! n3 j0 E) x8 X) I; G" e& p  Audio #2% j- |0 C6 e7 m6 G* d/ E" F
    ID : 2
3 f3 f' {0 p: S    Format : AAC6 j! q$ W1 K- b
    Format/Info : Advanced Audio Codec
- s- Z9 L( o' L" I6 `" r    Format profile : LC
8 _6 G6 z6 W7 a$ x( l    Codec ID : 40$ \. a7 I8 B* {
    Duration : 3mn 53s
( g/ N; {/ A) Y1 q    Bit rate mode : Variable
! @! Z( x& u2 `( w9 {( @# ?2 [    Bit rate : 317 Kbps
* T( n( A5 B. p8 j( H    Maximum bit rate : 325 Kbps) P+ }- v: Y& ?5 p& ?+ s7 k9 G1 z
    Channel count : 2 channels( S7 ]: ^& X. W; ~
    Channel positions : Front: L R. c, o# j9 P! Y+ J
    Sampling rate : 48.0 KHz
, p' L( I$ Y2 \; j- t5 s' @: V    Compression mode : Lossy
, A9 Q. S/ {. k/ t5 Z6 @, f* F1 S    Stream size : 8.85 MiB (2%)
* F: y* N7 V) U! U, U2 j, h2 ?3 m    Language : Korean. W, f4 Z6 T' ]
    Tagged date : UTC 2013-10-11 05:19:25

5 O" A$ g4 g7 T, o
8 w/ W' x, l# [+ }" Y載點:
5 W# s9 Z. U& D% F( q/ T1 W) J
遊客,如果您要查看本文隱藏內容請回覆

評分

參與人數 2名聲 +26 精幣 +21 收起 理由
hkskw + 20 + 15 精品文章
twins-jacky + 6 + 6 精品文章

查看全部評分

發表於 2013-10-11 15:16:49 | 顯示全部樓層
T-ara 這首新歌很好聽...謝謝分享
回覆 支持 反對

使用道具 舉報

發表於 2013-10-11 15:20:21 | 顯示全部樓層
又有T-ara的新歌可以看了% M$ g+ J8 ~* F" b+ L
已看過其他版本 但就是聽不懂唱啥
  ~$ X) w  j- B5 D' ~多謝大大分享中文字幕版 這下可好好欣賞了3 x  @' ^6 f6 o, M, l" i
回覆 支持 反對

使用道具 舉報

發表於 2013-10-11 16:12:16 | 顯示全部樓層
新歌真的很好聽,MV更是經典.T-ara最近蠻活躍的~~謝謝分享
回覆 支持 反對

使用道具 舉報

發表於 2013-10-11 16:28:54 | 顯示全部樓層
网上看到的解释:
$ U0 D4 e# P& Z7 F4 m4 R! V   No.9是Love potion no.9 的缩写是 1966年由the searcher演唱的英文歌 ,歌词是一个落魄的汉纸去找一个女人调配名为 Love potion no.9的爱情灵药 感觉可以是将所爱之人比喻成这款爱情灵药 也有可能理解成将爱情灵药拟人化 来表现那份陷入爱情里面伤痛的模样

評分

參與人數 1名聲 +2 精幣 +2 收起 理由
pureland + 2 + 2 熱心助人^^

查看全部評分

回覆 支持 反對

使用道具 舉報

發表於 2013-10-11 17:02:26 | 顯示全部樓層
VERY BAD SITUATION FOR TARA NOW FACING IN KOREA, THEY REALLY NEED A SONG TO BREAK IT OUT, HOPE THEY CAN DO IT!,
回覆 支持 反對

使用道具 舉報

發表於 2013-10-11 17:23:43 | 顯示全部樓層
顶一个,谢谢分享,喜欢
回覆 支持 反對

使用道具 舉報

發表於 2013-10-11 17:27:59 | 顯示全部樓層
t-ara終於出新歌了
3 T0 E0 D* }! ^/ z& e1 d期待好久了阿 XD
回覆 支持 反對

使用道具 舉報

發表於 2013-10-11 17:30:48 | 顯示全部樓層
T妞真的是太正了' }, a4 i. U3 S5 w9 J5 R7 c9 N
歡迎回歸
回覆 支持 反對

使用道具 舉報

發表於 2013-10-11 17:33:28 | 顯示全部樓層
又是一首旋律讓人很中毒的歌!6 K! ~9 |* \, C' \2 u& X! Q
聽久了會上癮!
回覆 支持 反對

使用道具 舉報

發表於 2013-10-11 17:33:46 | 顯示全部樓層
T妞的MV必定收藏了呢~
( C1 r9 j4 ]: h7 l9 ]8 I不能錯過呢~2 W' V3 h0 s7 s: H# P& D
謝謝樓主分享特效字幕版呢
回覆 支持 反對

使用道具 舉報

發表於 2013-10-11 18:06:22 | 顯示全部樓層
終於有點熱鬧了..TARA這首很好聽 希望成績能好
回覆 支持 反對

使用道具 舉報

發表於 2013-10-11 18:11:15 | 顯示全部樓層
中字版的耶!!!!
6 y- |2 k! z7 i5 a/ G0 L  ?* l5 P& d
這首也蠻好聽的!!!9 r- n- Q$ C' \. O" U1 ~! }: P# }
回覆 支持 反對

使用道具 舉報

發表於 2013-10-11 18:52:32 | 顯示全部樓層
來看中文字幕, o2 n* D6 e0 Y: n3 e7 S
不然真的聽不懂唱什麼= ="/ f0 _7 i" W9 i0 k4 m# e7 P
兩首素妍都是主唱~
回覆 支持 反對

使用道具 舉報

發表於 2013-10-11 19:15:40 | 顯示全部樓層
发展的不错嘛  出道能有2年的时间?  这次少了一个人吧
回覆 支持 反對

使用道具 舉報

發表於 2013-10-11 19:27:44 | 顯示全部樓層
T-ARA新歌 絕對不能錯過
$ t. {+ Z4 Q- ^7 @2 J等好久了 謝謝樓主分享
回覆 支持 反對

使用道具 舉報

發表於 2013-10-11 19:28:14 | 顯示全部樓層
T-ARA又出新歌了!1 G/ e1 X, S# b1 Y/ S
上次回歸已經有一段時間了  g, a! R. |* K7 f/ w, X# T
不知道風格是否會有變化
回覆 支持 反對

使用道具 舉報

發表於 2013-10-11 19:28:55 | 顯示全部樓層
這首新歌蠻好聽的; t# J3 |1 v3 q) |" I" s, m

- g" G5 L8 p7 _1 L' N  m8 G特別是孝敏的鏡頭好多喔
回覆 支持 反對

使用道具 舉報

發表於 2013-10-11 19:33:06 | 顯示全部樓層
Master is just too fast and greaterhelp to us
- Z" c" m# g; H/ s" k$ O) qThanks for sharing
回覆 支持 反對

使用道具 舉報

發表於 2013-10-11 19:33:24 | 顯示全部樓層
又有T-ara的新歌可以看了' M: g4 C! y2 j2 \9 p; _* K
已看過其他版本 但就是聽不懂唱啥這首新歌蠻好聽的等好久了 謝謝樓主分享
回覆 支持 反對

使用道具 舉報

您需要登錄後才可以回文 登錄 | 註冊

本版積分規則

熱門推薦

帶動4K經濟就是要靠這一味,韓國4K UHD頻道強力放送(下載-少女時代L.A演出現場)
帶動4K經濟就是要靠這一味
目前韓國已經擁有5個UHD超高清頻道,分別是:UMAX, CJ E&M
單件式環繞音響HT-Z9F / HT-X9000F 「聲」級再現立體真實 4K HDR藍光播放器UBP-X700  放送影院級視覺享受
單件式環繞音響HT-Z9F / H
Sony 在台為居家影音娛樂帶來更優異音效及影像播放的新陣
邁向萬物互聯時代!SMG攜手上海電信、富士康推出“5G+8K”試驗網
邁向萬物互聯時代!SMG攜
5月17日,2018世界電信和信息社會日當天,SMG下屬東方明珠新媒體
Optoma奧圖碼 4K 智慧家庭劇院投影機 首度亮相2018高雄國際HI-END音響大展
Optoma奧圖碼 4K 智慧家庭
為讓台灣消費者搶先體驗舒適便捷的智慧家居生活,全球投影機專
Sony 全新運動耳機打造”型”動時尚
Sony 全新運動耳機打造”
#全球首款真無線降噪1 #防潑水 #重低音WF-SP700N釋放自由聽感無

聯絡我們| 問題反映| 小黑屋| 手機版| Archiver|  本網站特別聘請 蔡家豪律師 為本站法律顧問

快速回覆 返回頂部 返回列表