查看: 24303|回覆: 338
收起左側

[韓國MV] T-ara - Number 9 [繁中特效字幕] [1080p] [mp4] [373M/百度]

[複製連結]
發表於 2013-10-11 15:09:04 | 顯示全部樓層 |閱讀模式

馬上註冊,結交更多好友,享用更多功能,讓你輕鬆玩轉社區。

您需要 登錄 才可以下載或查看,沒有帳號?註冊

x
T妞穿旗袍身材好曼妙喔<3
/ [! S9 c! N' h% E+ t話說No.9是什麼意思阿...不懂?4 \+ {: j' r, h( ?0 g- l
I'm in the duck...in the duck...呱呱XD

4 J! a# j8 N& ^6 |" I. }6 ^9 I! Y" c" J0 \/ o
[youtube]Kn8KKq60Koo[/youtube]
, i4 ^" f7 `; X6 y3 Z* E+ ?8 g" _/ J0 v; W. R( [

4 P  q' ~( X5 d4 D; Z3 J4 l  @3 Z8 ], N1 E& N$ R9 e8 |
3 i6 F; \5 t" M8 k2 g, k3 g

/ b  a1 a! ^& ?4 b* z8 i9 N* S7 P; \- P5 {

" _  W# }, O5 J* g, w8 j/ n
; K& Z' t/ ~8 E( M% Y0 M# t2 l; ]$ }/ j5 F) u9 n5 a3 ?

) l. u7 u: R/ p9 R( p- N
D:\T-ara - Number 9 [繁中特效字幕] [1080p] [pureland].mp44 v) i* U8 n, |6 j* Y
  General
7 a5 h) B6 j6 Y* A    Complete name : D:\T-ara - Number 9 [繁中特效字幕] [1080p] [pureland].mp4) z8 d) Q! N1 d, A, G
    Format : MPEG-4
1 T5 q  J7 L; o* e$ b9 G    Format profile : Base Media
& |9 B+ p0 G) y6 p6 _6 ^& ]    Codec ID : isom
% b" |" y8 V/ Q; X7 I9 y. X    File size : 373 MiB
$ w1 U/ H) }, c  k/ n: `) s    Duration : 3mn 53s0 q+ R7 f9 l. a3 k  l  E
    Overall bit rate mode : Variable
! p, H" y  R+ [% Z* m1 D( v    Overall bit rate : 13.4 Mbps
& M! b- g! D  G3 v' C% S    Encoded date : UTC 2013-10-11 05:19:25$ }; Z) I) h) e4 J0 }/ v3 X! ^
    Tagged date : UTC 2013-10-11 05:19:250 [' R, }  j4 D; D9 q7 @; d
  Video #1
+ a" j7 J6 [+ V5 [; K8 \  v& O& R    ID : 17 s, g" Q/ I" L9 J* I$ W3 [2 {! b
    Format : AVC- B8 d: U# _9 c/ d$ Z6 t' U
    Format/Info : Advanced Video Codec( j/ Z. M8 N; E% o
    Format profile : Main@L4.0
% I9 C# t4 }& Q! \& w5 Z0 I    Format settings, CABAC : Yes. Q+ J- v5 a% B  M3 a' t- s4 r
    Format settings, ReFrames : 2 frames
9 F+ b4 W6 h, g# m    Format settings, GOP : M=2, N=29; ^: I9 x  S1 ~8 [
    Codec ID : avc1
' m& U! h, ]9 c1 s1 h; [4 n( k9 Q7 T    Codec ID/Info : Advanced Video Coding
' E  E( x* n  ^" d' _4 T    Duration : 3mn 53s
4 \, J$ H7 r, b' k. i) z    Bit rate : 13.1 Mbps
! N- y9 a/ x4 \    Maximum bit rate : 19.7 Mbps
2 E! A+ A! _1 k. k  h; Y3 }( T    Width : 1 920 pixels
' e/ b4 D$ {9 I, U. r7 s( y+ g    Height : 1 080 pixels; m: a8 s! A: c$ y0 E
    Display aspect ratio : 16:9
1 j+ d1 \" d# q' p) x9 p    Frame rate mode : Variable
4 N0 x) {  n" u- a# x7 _    Frame rate : 29.970 fps
% M7 T' N  T# i5 e& {! ]    Minimum frame rate : 29.940 fps
1 f8 p7 h+ b+ u2 I# @. J    Maximum frame rate : 29.970 fps
5 A2 X7 W/ o  [3 L    Color space : YUV
/ `) i3 v9 M3 O) F/ F8 V4 L! W    Chroma subsampling : 4:2:0: |2 ?6 N4 U, I5 T
    Bit depth : 8 bits4 k3 k' U% e1 z, Y% K8 a" F
    Scan type : Progressive
5 l" m# j+ q* k) T; a8 M    Bits/(Pixel*Frame) : 0.210
1 m4 B8 Z0 o7 m! g1 g1 O    Stream size : 364 MiB (98%)
- g5 A5 {' t8 }1 b1 ]3 n7 n; V    Language : English
3 M( K  P/ Y' x+ T. i    Encoded date : UTC 2013-10-11 05:17:23( y% f" ?3 m% v/ b; J5 @
    Tagged date : UTC 2013-10-11 05:19:254 |6 }# G7 c! u' L: H3 h( d
  Audio #2
, q+ f, l, |, v6 c. {  r    ID : 2
! a9 I; ^) ]$ G1 M0 @6 P    Format : AAC1 C. I1 @8 G, l' {
    Format/Info : Advanced Audio Codec
7 J5 |7 [7 J+ X# }& n* n; g    Format profile : LC9 R; m! `* d* Y" j& \2 i1 m7 `( ~
    Codec ID : 40
( r% ?) ~5 r- i$ l/ t: u: b    Duration : 3mn 53s, y, G8 @5 X7 ]2 {/ s; ?
    Bit rate mode : Variable
* `% u$ T, W$ D' p. }    Bit rate : 317 Kbps
; j$ k) _( w# E( R+ f    Maximum bit rate : 325 Kbps
3 U! N  @: o  _! D/ Z! D' y    Channel count : 2 channels
: h- ]# O  C+ i& P: S7 d    Channel positions : Front: L R
; F% D( y! E5 P: J+ d6 b    Sampling rate : 48.0 KHz
! V+ `. C# u6 b) m: ^1 e    Compression mode : Lossy/ z* d6 b& z- p
    Stream size : 8.85 MiB (2%), l; P- C% l" ~- q$ ^
    Language : Korean3 C  T6 c- p/ n
    Tagged date : UTC 2013-10-11 05:19:25
! Z' n3 B6 B2 i; C7 L( ?

5 h, X; [6 i" Y' X) ^# ^載點:
8 A- w+ e  `5 X; ?' `
遊客,如果您要查看本文隱藏內容請回覆

評分

參與人數 2名聲 +26 精幣 +21 收起 理由
hkskw + 20 + 15 精品文章
twins-jacky + 6 + 6 精品文章

查看全部評分

發表於 2013-10-11 15:16:49 | 顯示全部樓層
T-ara 這首新歌很好聽...謝謝分享
回覆 支持 反對

使用道具 檢舉

發表於 2013-10-11 15:20:21 | 顯示全部樓層
又有T-ara的新歌可以看了
' K% j% }1 V( ^5 u( u已看過其他版本 但就是聽不懂唱啥* w! s, O2 Z* q. u1 W* |. X" _1 n3 M
多謝大大分享中文字幕版 這下可好好欣賞了7 ^' `0 c3 f& [" V6 u
回覆 支持 反對

使用道具 檢舉

發表於 2013-10-11 16:12:16 | 顯示全部樓層
新歌真的很好聽,MV更是經典.T-ara最近蠻活躍的~~謝謝分享
回覆 支持 反對

使用道具 檢舉

發表於 2013-10-11 16:28:54 | 顯示全部樓層
网上看到的解释:
9 k1 A7 O' z5 `$ g2 s" s   No.9是Love potion no.9 的缩写是 1966年由the searcher演唱的英文歌 ,歌词是一个落魄的汉纸去找一个女人调配名为 Love potion no.9的爱情灵药 感觉可以是将所爱之人比喻成这款爱情灵药 也有可能理解成将爱情灵药拟人化 来表现那份陷入爱情里面伤痛的模样

評分

參與人數 1名聲 +2 精幣 +2 收起 理由
pureland + 2 + 2 熱心助人^^

查看全部評分

回覆 支持 反對

使用道具 檢舉

發表於 2013-10-11 17:02:26 | 顯示全部樓層
VERY BAD SITUATION FOR TARA NOW FACING IN KOREA, THEY REALLY NEED A SONG TO BREAK IT OUT, HOPE THEY CAN DO IT!,
回覆 支持 反對

使用道具 檢舉

發表於 2013-10-11 17:23:43 | 顯示全部樓層
顶一个,谢谢分享,喜欢
回覆 支持 反對

使用道具 檢舉

發表於 2013-10-11 17:27:59 | 顯示全部樓層
t-ara終於出新歌了% t: A2 g2 |: f- H0 E
期待好久了阿 XD
回覆 支持 反對

使用道具 檢舉

發表於 2013-10-11 17:30:48 | 顯示全部樓層
T妞真的是太正了
4 D# W6 n$ `0 j' P' J/ M$ o8 l0 y歡迎回歸
回覆 支持 反對

使用道具 檢舉

發表於 2013-10-11 17:33:28 | 顯示全部樓層
又是一首旋律讓人很中毒的歌!0 x+ C. H$ U  ^& F0 c3 G
聽久了會上癮!
回覆 支持 反對

使用道具 檢舉

發表於 2013-10-11 17:33:46 | 顯示全部樓層
T妞的MV必定收藏了呢~! ~& p( ~% V3 C1 i" p7 Z6 y
不能錯過呢~( c: c. I3 o& M* E  e
謝謝樓主分享特效字幕版呢
回覆 支持 反對

使用道具 檢舉

發表於 2013-10-11 18:06:22 | 顯示全部樓層
終於有點熱鬧了..TARA這首很好聽 希望成績能好
回覆 支持 反對

使用道具 檢舉

發表於 2013-10-11 18:11:15 | 顯示全部樓層
中字版的耶!!!!; Z" G$ M: e6 p
( d& |3 V0 \0 ~$ A
這首也蠻好聽的!!!0 |; K0 A% g& w& m
回覆 支持 反對

使用道具 檢舉

發表於 2013-10-11 18:52:32 | 顯示全部樓層
來看中文字幕
8 o# r4 U+ y9 G9 _4 s  P不然真的聽不懂唱什麼= ="
1 T9 h8 g4 k0 L兩首素妍都是主唱~
回覆 支持 反對

使用道具 檢舉

發表於 2013-10-11 19:15:40 | 顯示全部樓層
发展的不错嘛  出道能有2年的时间?  这次少了一个人吧
回覆 支持 反對

使用道具 檢舉

發表於 2013-10-11 19:27:44 | 顯示全部樓層
T-ARA新歌 絕對不能錯過
9 }1 @) M0 u! [* E等好久了 謝謝樓主分享
回覆 支持 反對

使用道具 檢舉

發表於 2013-10-11 19:28:14 | 顯示全部樓層
T-ARA又出新歌了!6 K/ N0 E+ @) H
上次回歸已經有一段時間了: z# [$ V5 {  q; j) @! H) k
不知道風格是否會有變化
回覆 支持 反對

使用道具 檢舉

發表於 2013-10-11 19:28:55 | 顯示全部樓層
這首新歌蠻好聽的# J2 y  T* {/ d* C$ f- l

7 G7 [! L4 K1 `* \. ^特別是孝敏的鏡頭好多喔
回覆 支持 反對

使用道具 檢舉

發表於 2013-10-11 19:33:06 | 顯示全部樓層
Master is just too fast and greaterhelp to us( v$ Y" Z! ~& r2 M( }. H
Thanks for sharing
回覆 支持 反對

使用道具 檢舉

發表於 2013-10-11 19:33:24 | 顯示全部樓層
又有T-ara的新歌可以看了/ [" c( _4 L7 k# i; A
已看過其他版本 但就是聽不懂唱啥這首新歌蠻好聽的等好久了 謝謝樓主分享
回覆 支持 反對

使用道具 檢舉

您需要登錄後才可以回文 登錄 | 註冊

再次提醒,當您點擊發表回覆,視同您已經明白本討論區的版規,如不明白請先參見各版版規。

熱門推薦

6年時光終成紫郢劍,紫色的聲音出鞘
6年時光終成紫郢劍,紫色
是的,文章開頭我引用了1983年電影新蜀山劍俠的紫郢劍,以及歌手
小試身手就可以越級打怪-秦朝3115D
小試身手就可以越級打怪-
音響其實是比較級的東西,早期剛開始接觸沒幾年的時候都會有很比
Blue Aura x30 主動式電腦小喇叭
Blue Aura x30 主動式電腦
第一次開箱Blue Aura x30 主動式電腦小揚聲器 1. 外箱 2. 小喇
淺談色度計與光譜儀的差異
淺談色度計與光譜儀的差異
本文章最後由 真平 於 2012-12-5 06:45 編輯 近年來由於影像
帶動4K經濟就是要靠這一味,韓國4K UHD頻道強力放送(下載-少女時代L.A演出現場)
帶動4K經濟就是要靠這一味
目前韓國已經擁有5個UHD超高清頻道,分別是:UMAX, CJ E&M

聯絡我們| 問題反映| 小黑屋| 手機版| Archiver|  本網站特別聘請 蔡家豪律師 為本站法律顧問

快速回覆 返回頂部 返回列表