查看: 24924|回覆: 338
收起左側

[韓國MV] T-ara - Number 9 [繁中特效字幕] [1080p] [mp4] [373M/百度]

[複製連結]
發表於 2013-10-11 15:09:04 | 顯示全部樓層 |閱讀模式

馬上註冊,結交更多好友,享用更多功能,讓你輕鬆玩轉社區。

您需要 登錄 才可以下載或查看,沒有帳號?註冊

x
T妞穿旗袍身材好曼妙喔<3" D0 ^0 C8 ?6 B" _6 a, e. ~
話說No.9是什麼意思阿...不懂?
( q& L- G& G* U2 M' N2 F; A  BI'm in the duck...in the duck...呱呱XD
' z  m4 m- C( P( K$ S) D

7 R& _" W) p) x[youtube]Kn8KKq60Koo[/youtube]
0 R  u; P6 f! K$ {2 t2 t) b/ N: V9 l. ?& i
/ e! A" d" p, ^0 u
  W/ z1 i$ p- D0 p( K# j# x; M

; B, d0 n' W) V+ P" ^4 `3 a( @# n5 R* q* W7 q
2 @* z  P8 F$ G; y, p- s. L$ c( u

% o! n& O) u4 }3 y# F2 J+ _, Y, Q: U/ F- s# m' T. \. o7 @
2 K: F. s$ |( m3 Y

1 G: d: c% l  J/ b
D:\T-ara - Number 9 [繁中特效字幕] [1080p] [pureland].mp4
$ @# i% q: j, G; u$ m  General
- Z; ~, B  z' y$ S8 J    Complete name : D:\T-ara - Number 9 [繁中特效字幕] [1080p] [pureland].mp4
! P# K7 w& H+ P1 w  I    Format : MPEG-4
- O7 L1 f) m" f' L    Format profile : Base Media4 [  c0 K8 T  @8 h* a
    Codec ID : isom- G  g* z& L0 Q  c, O
    File size : 373 MiB
. x1 x( a9 Q: U! j: F    Duration : 3mn 53s
7 n8 P% Q! B: H  s9 H8 C    Overall bit rate mode : Variable+ B1 e  X) H+ U1 t. C6 H. h- U
    Overall bit rate : 13.4 Mbps- z4 w8 }' j: l( \
    Encoded date : UTC 2013-10-11 05:19:25( h% C1 M; K2 ?6 T8 |1 }
    Tagged date : UTC 2013-10-11 05:19:25( P2 ^# {2 s: W! x1 l9 S
  Video #1
- z/ n/ m9 h5 g# T. ?- b, O. g    ID : 10 i* l( ~4 N  R
    Format : AVC, Z- P# t- z7 L. Q) P
    Format/Info : Advanced Video Codec7 T7 s9 `/ u  d
    Format profile : Main@L4.0
0 V" S# }! U2 _6 H. }    Format settings, CABAC : Yes! D6 u# r; ]: W- L0 i* y+ X
    Format settings, ReFrames : 2 frames3 Q: n) j; e4 c& Z2 ]2 y" S
    Format settings, GOP : M=2, N=293 }8 Y9 s- }" @' z) K0 J
    Codec ID : avc1
$ e3 p5 ]: q5 _    Codec ID/Info : Advanced Video Coding0 P* ], W, r+ @* r: H
    Duration : 3mn 53s- X3 x, J+ n- D% G" k% m+ a* F" K  q
    Bit rate : 13.1 Mbps
& [, c- g$ {3 {- Y    Maximum bit rate : 19.7 Mbps
- H" N* Y! B6 S% V6 h) Q' e: Y7 x    Width : 1 920 pixels, w; J1 J% i" Y1 K
    Height : 1 080 pixels
# z. Z, }: b' A' d, r2 n  z    Display aspect ratio : 16:9
$ _% V, O; H: @1 p* v    Frame rate mode : Variable
1 E0 T4 E* ^# i  N: P& i    Frame rate : 29.970 fps+ x$ m. |/ p0 F& _- B5 n; m
    Minimum frame rate : 29.940 fps
6 Q! U: B+ k) T    Maximum frame rate : 29.970 fps( z- H7 T; f% C& X4 ]
    Color space : YUV5 D+ ?* B( l0 `4 J: ?0 U1 K
    Chroma subsampling : 4:2:00 {: V4 K3 H9 a, K/ C
    Bit depth : 8 bits
" C* [! X0 N5 b1 c9 }3 d    Scan type : Progressive1 `/ F) `9 t  T3 L/ P
    Bits/(Pixel*Frame) : 0.210
6 Y8 S' a: h2 a5 A! [; C3 |. v    Stream size : 364 MiB (98%)
( J+ r6 |- \5 _: {9 C. ]    Language : English7 {5 B( V" x" b1 ~4 i5 }
    Encoded date : UTC 2013-10-11 05:17:23
# v" s' c2 C1 v5 P. W2 h    Tagged date : UTC 2013-10-11 05:19:25) B7 A, ~- Z  j# {% v# K. |$ o
  Audio #2. ~! G! p5 r2 d, T
    ID : 20 j5 ]5 E. K: z: v2 y1 t
    Format : AAC
+ x: x5 K, o' H/ ~* [; X% l( I  y! ]    Format/Info : Advanced Audio Codec0 ^/ S9 h& v( u$ c* l2 |
    Format profile : LC
* J8 z& r+ h: _% Y2 G    Codec ID : 40
% ^$ d: b3 B9 S4 H7 i8 `8 H  q! O+ A    Duration : 3mn 53s
6 G  c3 A5 n. E. R    Bit rate mode : Variable2 J, E1 G5 t+ I2 o8 ?
    Bit rate : 317 Kbps
( \% |' a& q- u/ F+ J4 K    Maximum bit rate : 325 Kbps
: |5 U/ _5 A& t- X; v  B    Channel count : 2 channels
. X2 E" c" `' {7 ?( C    Channel positions : Front: L R
% N$ ^8 H  G, i1 t; ~    Sampling rate : 48.0 KHz
* }0 r" l5 ]. {$ F# |# k    Compression mode : Lossy# E/ r+ O4 T) d" r% Y+ @8 [+ l
    Stream size : 8.85 MiB (2%)
4 ]9 u: S7 @: z4 t  f* @( L    Language : Korean7 n3 O' ?1 c! q; d  l) D
    Tagged date : UTC 2013-10-11 05:19:25

" i5 _$ ]0 U7 j! A3 z$ l
- Q1 W7 a( q* I0 J* e$ a載點:  O5 c" U6 ~  {- m, M& |7 G
遊客,如果您要查看本文隱藏內容請回覆

評分

參與人數 2名聲 +26 精幣 +21 收起 理由
hkskw + 20 + 15 精品文章
twins-jacky + 6 + 6 精品文章

查看全部評分

發表於 2013-10-11 15:16:49 | 顯示全部樓層
T-ara 這首新歌很好聽...謝謝分享
回覆 支持 反對

使用道具 檢舉

發表於 2013-10-11 15:20:21 | 顯示全部樓層
又有T-ara的新歌可以看了3 \/ F" n. ^( s8 X
已看過其他版本 但就是聽不懂唱啥2 k( @2 H* p( B! U
多謝大大分享中文字幕版 這下可好好欣賞了
# @3 x' D3 H; ?& U9 h
回覆 支持 反對

使用道具 檢舉

發表於 2013-10-11 16:12:16 | 顯示全部樓層
新歌真的很好聽,MV更是經典.T-ara最近蠻活躍的~~謝謝分享
回覆 支持 反對

使用道具 檢舉

發表於 2013-10-11 16:28:54 | 顯示全部樓層
网上看到的解释:
# a" e/ s3 \0 K$ ?   No.9是Love potion no.9 的缩写是 1966年由the searcher演唱的英文歌 ,歌词是一个落魄的汉纸去找一个女人调配名为 Love potion no.9的爱情灵药 感觉可以是将所爱之人比喻成这款爱情灵药 也有可能理解成将爱情灵药拟人化 来表现那份陷入爱情里面伤痛的模样

評分

參與人數 1名聲 +2 精幣 +2 收起 理由
pureland + 2 + 2 熱心助人^^

查看全部評分

回覆 支持 反對

使用道具 檢舉

發表於 2013-10-11 17:02:26 | 顯示全部樓層
VERY BAD SITUATION FOR TARA NOW FACING IN KOREA, THEY REALLY NEED A SONG TO BREAK IT OUT, HOPE THEY CAN DO IT!,
回覆 支持 反對

使用道具 檢舉

發表於 2013-10-11 17:23:43 | 顯示全部樓層
顶一个,谢谢分享,喜欢
回覆 支持 反對

使用道具 檢舉

發表於 2013-10-11 17:27:59 | 顯示全部樓層
t-ara終於出新歌了. N% O: s! R! n4 T
期待好久了阿 XD
回覆 支持 反對

使用道具 檢舉

發表於 2013-10-11 17:30:48 | 顯示全部樓層
T妞真的是太正了# S3 b' A6 R$ l0 ?$ ]: P7 M! y
歡迎回歸
回覆 支持 反對

使用道具 檢舉

發表於 2013-10-11 17:33:28 | 顯示全部樓層
又是一首旋律讓人很中毒的歌!
5 q" g2 B5 t/ v) x' `% I  w" V: z聽久了會上癮!
回覆 支持 反對

使用道具 檢舉

發表於 2013-10-11 17:33:46 | 顯示全部樓層
T妞的MV必定收藏了呢~! `9 r& _* ?3 S$ ?% g
不能錯過呢~" b+ f; w( g0 k+ `, o. W
謝謝樓主分享特效字幕版呢
回覆 支持 反對

使用道具 檢舉

發表於 2013-10-11 18:06:22 | 顯示全部樓層
終於有點熱鬧了..TARA這首很好聽 希望成績能好
回覆 支持 反對

使用道具 檢舉

發表於 2013-10-11 18:11:15 | 顯示全部樓層
中字版的耶!!!!
5 l) [; O4 N- V2 W* ~5 o7 Z# P( S; F) ^
這首也蠻好聽的!!!; p2 z6 K. A5 j, \
回覆 支持 反對

使用道具 檢舉

發表於 2013-10-11 18:52:32 | 顯示全部樓層
來看中文字幕9 Q# Y& _8 U+ w/ b+ s- ]
不然真的聽不懂唱什麼= ="
1 ]" j0 Y& P9 y- S  G% `% F兩首素妍都是主唱~
回覆 支持 反對

使用道具 檢舉

發表於 2013-10-11 19:15:40 | 顯示全部樓層
发展的不错嘛  出道能有2年的时间?  这次少了一个人吧
回覆 支持 反對

使用道具 檢舉

發表於 2013-10-11 19:27:44 | 顯示全部樓層
T-ARA新歌 絕對不能錯過
/ z! o" ]: @' x( e  v# M等好久了 謝謝樓主分享
回覆 支持 反對

使用道具 檢舉

發表於 2013-10-11 19:28:14 | 顯示全部樓層
T-ARA又出新歌了!
6 P  w* N, P) [1 F$ P( e7 J上次回歸已經有一段時間了
+ s; b* U% u- X; U; T+ Z不知道風格是否會有變化
回覆 支持 反對

使用道具 檢舉

發表於 2013-10-11 19:28:55 | 顯示全部樓層
這首新歌蠻好聽的
  `5 O, e7 r; r5 Y- `& j
. p% j+ |6 K  R特別是孝敏的鏡頭好多喔
回覆 支持 反對

使用道具 檢舉

發表於 2013-10-11 19:33:06 | 顯示全部樓層
Master is just too fast and greaterhelp to us. T" E' h  s- p& S
Thanks for sharing
回覆 支持 反對

使用道具 檢舉

發表於 2013-10-11 19:33:24 | 顯示全部樓層
又有T-ara的新歌可以看了
* x0 d$ J* w: X" V; }7 E  `已看過其他版本 但就是聽不懂唱啥這首新歌蠻好聽的等好久了 謝謝樓主分享
回覆 支持 反對

使用道具 檢舉

您需要登錄後才可以回文 登錄 | 註冊

再次提醒,當您點擊發表回覆,視同您已經明白本討論區的版規,如不明白請先參見各版版規。

熱門推薦

GRANDVIEW 固定框幕開箱!!~
GRANDVIEW 固定框幕開箱!!
人生第一次開箱,還請各位前輩鞭小力點
台達電全球首台超高解析度DLP 8K投影機 於日本發表
台達電全球首台超高解析度
台達電宣布與關聯企業Digital Projection International Ltd. (
帶動4K經濟就是要靠這一味,韓國4K UHD頻道強力放送(下載-少女時代L.A演出現場)
帶動4K經濟就是要靠這一味
目前韓國已經擁有5個UHD超高清頻道,分別是:UMAX, CJ E&M
自己的音響架自己做,全鋁合金打造,防震+散熱+隔離電 磁波,三個願望讓您一次滿足!
自己的音響架自己做,全鋁
3D 示意圖 日本 貼模板 加工中! 一共三組音
Denon 全新W6500H 支援全新IMAX Enhanced新認證格式
Denon 全新W6500H 支援全
日本Denon宣布推出全新高階X6500H環擴,最值得注目的是除了內建D

聯絡我們| 問題反映| 小黑屋| 手機版| Archiver|  本網站特別聘請 蔡家豪律師 為本站法律顧問

快速回覆 返回頂部 返回列表